  0
SECTION
  2
HEADER
  9
$ACADVER
  1
AC1015
  9
$ACADMAINTVER
 70
    18
  9
$DWGCODEPAGE
  3
ANSI_1252
  9
$INSBASE
 10
0.0
 20
0.0
 30
0.0
  9
$EXTMIN
 10
0.0
 20
0.0
 30
0.0
  9
$EXTMAX
 10
662.1707778397176
 20
460.8313215362136
 30
0.0
  9
$LIMMIN
 10
0.0
 20
0.0
  9
$LIMMAX
 10
420.0
 20
297.0
  9
$ORTHOMODE
 70
     1
  9
$REGENMODE
 70
     1
  9
$FILLMODE
 70
     1
  9
$QTEXTMODE
 70
     0
  9
$MIRRTEXT
 70
     1
  9
$LTSCALE
 40
1.0
  9
$ATTMODE
 70
     1
  9
$TEXTSIZE
 40
2.5
  9
$TRACEWID
 40
1.0
  9
$TEXTSTYLE
  7
STANDARD
  9
$CLAYER
  8
0
  9
$CELTYPE
  6
ByLayer
  9
$CECOLOR
 62
   256
  9
$CELTSCALE
 40
1.0
  9
$DISPSILH
 70
     0
  9
$DIMSCALE
 40
1.0
  9
$DIMASZ
 40
2.5
  9
$DIMEXO
 40
1.0
  9
$DIMDLI
 40
10.0
  9
$DIMRND
 40
0.0
  9
$DIMDLE
 40
0.0
  9
$DIMEXE
 40
1.0
  9
$DIMTP
 40
0.1
  9
$DIMTM
 40
0.1
  9
$DIMTXT
 40
3.5
  9
$DIMCEN
 40
0.0
  9
$DIMTSZ
 40
0.0
  9
$DIMTOL
 70
     0
  9
$DIMLIM
 70
     0
  9
$DIMTIH
 70
     0
  9
$DIMTOH
 70
     0
  9
$DIMSE1
 70
     0
  9
$DIMSE2
 70
     0
  9
$DIMTAD
 70
     1
  9
$DIMZIN
 70
     8
  9
$DIMBLK
  1

  9
$DIMASO
 70
     1
  9
$DIMSHO
 70
     1
  9
$DIMPOST
  1

  9
$DIMAPOST
  1
"
  9
$DIMALT
 70
     0
  9
$DIMALTD
 70
     2
  9
$DIMALTF
 40
0.0393701
  9
$DIMLFAC
 40
1.0
  9
$DIMTOFL
 70
     1
  9
$DIMTVP
 40
0.0
  9
$DIMTIX
 70
     0
  9
$DIMSOXD
 70
     0
  9
$DIMSAH
 70
     0
  9
$DIMBLK1
  1

  9
$DIMBLK2
  1

  9
$DIMSTYLE
  2
AM_DIN
  9
$DIMCLRD
 70
   256
  9
$DIMCLRE
 70
   256
  9
$DIMCLRT
 70
     2
  9
$DIMTFAC
 40
0.71
  9
$DIMGAP
 40
1.5
  9
$DIMJUST
 70
     0
  9
$DIMSD1
 70
     0
  9
$DIMSD2
 70
     0
  9
$DIMTOLJ
 70
     0
  9
$DIMTZIN
 70
     8
  9
$DIMALTZ
 70
     0
  9
$DIMALTTZ
 70
     0
  9
$DIMUPT
 70
     0
  9
$DIMDEC
 70
     1
  9
$DIMTDEC
 70
     3
  9
$DIMALTU
 70
     2
  9
$DIMALTTD
 70
     4
  9
$DIMTXSTY
  7
STANDARD
  9
$DIMAUNIT
 70
     0
  9
$DIMADEC
 70
     0
  9
$DIMALTRND
 40
0.0
  9
$DIMAZIN
 70
     2
  9
$DIMDSEP
 70
    46
  9
$DIMATFIT
 70
     3
  9
$DIMFRAC
 70
     0
  9
$DIMLDRBLK
  1

  9
$DIMLUNIT
 70
     2
  9
$DIMLWD
 70
    -1
  9
$DIMLWE
 70
    -1
  9
$DIMTMOVE
 70
     0
  9
$LUNITS
 70
     2
  9
$LUPREC
 70
     2
  9
$SKETCHINC
 40
1.0
  9
$FILLETRAD
 40
0.1
  9
$AUNITS
 70
     0
  9
$AUPREC
 70
     0
  9
$MENU
  1
.
  9
$ELEVATION
 40
0.0
  9
$PELEVATION
 40
0.0
  9
$THICKNESS
 40
0.0
  9
$LIMCHECK
 70
     0
  9
$CHAMFERA
 40
2.5
  9
$CHAMFERB
 40
2.5
  9
$CHAMFERC
 40
20.0
  9
$CHAMFERD
 40
0.0
  9
$SKPOLY
 70
     0
  9
$TDCREATE
 40
2453798.966575521
  9
$TDUCREATE
 40
2453798.924908854
  9
$TDUPDATE
 40
2454844.731434271
  9
$TDUUPDATE
 40
2454844.689767604
  9
$TDINDWG
 40
1.0982210417
  9
$TDUSRTIMER
 40
1.0982190625
  9
$USRTIMER
 70
     1
  9
$ANGBASE
 50
0.0
  9
$ANGDIR
 70
     0
  9
$PDMODE
 70
     0
  9
$PDSIZE
 40
0.0
  9
$PLINEWID
 40
0.0
  9
$SPLFRAME
 70
     0
  9
$SPLINETYPE
 70
     6
  9
$SPLINESEGS
 70
     8
  9
$HANDSEED
  5
6F76
  9
$SURFTAB1
 70
     6
  9
$SURFTAB2
 70
     6
  9
$SURFTYPE
 70
     6
  9
$SURFU
 70
     6
  9
$SURFV
 70
     6
  9
$UCSBASE
  2

  9
$UCSNAME
  2

  9
$UCSORG
 10
0.0
 20
0.0
 30
0.0
  9
$UCSXDIR
 10
1.0
 20
0.0
 30
0.0
  9
$UCSYDIR
 10
0.0
 20
1.0
 30
0.0
  9
$UCSORTHOREF
  2

  9
$UCSORTHOVIEW
 70
     0
  9
$UCSORGTOP
 10
0.0
 20
0.0
 30
0.0
  9
$UCSORGBOTTOM
 10
0.0
 20
0.0
 30
0.0
  9
$UCSORGLEFT
 10
0.0
 20
0.0
 30
0.0
  9
$UCSORGRIGHT
 10
0.0
 20
0.0
 30
0.0
  9
$UCSORGFRONT
 10
0.0
 20
0.0
 30
0.0
  9
$UCSORGBACK
 10
0.0
 20
0.0
 30
0.0
  9
$PUCSBASE
  2

  9
$PUCSNAME
  2

  9
$PUCSORG
 10
0.0
 20
0.0
 30
0.0
  9
$PUCSXDIR
 10
1.0
 20
0.0
 30
0.0
  9
$PUCSYDIR
 10
0.0
 20
1.0
 30
0.0
  9
$PUCSORTHOREF
  2

  9
$PUCSORTHOVIEW
 70
     0
  9
$PUCSORGTOP
 10
0.0
 20
0.0
 30
0.0
  9
$PUCSORGBOTTOM
 10
0.0
 20
0.0
 30
0.0
  9
$PUCSORGLEFT
 10
0.0
 20
0.0
 30
0.0
  9
$PUCSORGRIGHT
 10
0.0
 20
0.0
 30
0.0
  9
$PUCSORGFRONT
 10
0.0
 20
0.0
 30
0.0
  9
$PUCSORGBACK
 10
0.0
 20
0.0
 30
0.0
  9
$USERI1
 70
     0
  9
$USERI2
 70
     0
  9
$USERI3
 70
     0
  9
$USERI4
 70
     0
  9
$USERI5
 70
     0
  9
$USERR1
 40
0.0
  9
$USERR2
 40
0.0
  9
$USERR3
 40
0.0
  9
$USERR4
 40
0.0
  9
$USERR5
 40
0.0
  9
$WORLDVIEW
 70
     1
  9
$SHADEDGE
 70
     3
  9
$SHADEDIF
 70
    70
  9
$TILEMODE
 70
     0
  9
$MAXACTVP
 70
    64
  9
$PINSBASE
 10
0.0
 20
0.0
 30
0.0
  9
$PLIMCHECK
 70
     0
  9
$PEXTMIN
 10
-0.0064041928748111
 20
-0.004528679247187
 30
-0.0000000000112498
  9
$PEXTMAX
 10
420.0064100605656
 20
297.0045328285427
 30
0.0000000000002956
  9
$PLIMMIN
 10
0.0
 20
0.0
  9
$PLIMMAX
 10
420.0
 20
297.0
  9
$UNITMODE
 70
     0
  9
$VISRETAIN
 70
     1
  9
$PLINEGEN
 70
     0
  9
$PSLTSCALE
 70
     1
  9
$TREEDEPTH
 70
  3020
  9
$CMLSTYLE
  2
Standard
  9
$CMLJUST
 70
     0
  9
$CMLSCALE
 40
20.0
  9
$PROXYGRAPHICS
 70
     1
  9
$MEASUREMENT
 70
     1
  9
$CELWEIGHT
370
    -1
  9
$ENDCAPS
280
     0
  9
$JOINSTYLE
280
     0
  9
$LWDISPLAY
290
     0
  9
$INSUNITS
 70
     4
  9
$HYPERLINKBASE
  1

  9
$STYLESHEET
  1
PoPa-0.ctb
  9
$XEDIT
290
     1
  9
$CEPSNTYPE
380
     0
  9
$PSTYLEMODE
290
     1
  9
$FINGERPRINTGUID
  2
{493BFAB3-BE4B-404B-9261-AB3BF2088C47}
  9
$VERSIONGUID
  2
{244850EB-CF09-4942-A4F9-34F4EDB1EA60}
  9
$EXTNAMES
290
     1
  9
$PSVPSCALE
 40
0.0
  9
$OLESTARTUP
290
     0
  0
ENDSEC
  0
SECTION
  2
CLASSES
  0
CLASS
  1
ACDBDICTIONARYWDFLT
  2
AcDbDictionaryWithDefault
  3
ObjectDBX Classes
 90
        0
280
     0
281
     0
  0
CLASS
  1
ACDBPLACEHOLDER
  2
AcDbPlaceHolder
  3
ObjectDBX Classes
 90
        0
280
     0
281
     0
  0
CLASS
  1
LAYOUT
  2
AcDbLayout
  3
ObjectDBX Classes
 90
        0
280
     0
281
     0
  0
CLASS
  1
ACME_DOCUMENT
  2
AcMeDbDoc
  3
AcMeServices
 90
        0
280
     0
281
     0
  0
CLASS
  1
ACMESCOPE
  2
AcMeScope
  3
AcMeServices
 90
        0
280
     0
281
     0
  0
CLASS
  1
ACMECOMMANDHISTORY
  2
AcMeCommandHistory
  3
AcMeServices
 90
        0
280
     0
281
     0
  0
CLASS
  1
ACIMSYSVARMAN
  2
AcImSysVarManager
  3
AcMeServices
 90
        0
280
     0
281
     0
  0
CLASS
  1
ACIMREALSYSVAR
  2
AcImRealSysVar
  3
AcMeServices
 90
        0
280
     0
281
     0
  0
CLASS
  1
ACIMINTSYSVAR
  2
AcImIntSysVar
  3
AcMeServices
 90
        0
280
     0
281
     0
  0
CLASS
  1
ACMEDRAWINGMAN
  2
AcMeDrawingMan
  3
AcMeServices
 90
        0
280
     0
281
     0
  0
CLASS
  1
ACMEVIEW
  2
AcMeView
  3
AcMeServices
 90
        0
280
     0
281
     0
  0
CLASS
  1
ACDBENTITYCACHE
  2
AcMeEntityCache
  3
AcMeServices
 90
        0
280
     0
281
     0
  0
CLASS
  1
GSMANAGER
  2
AcMeGSManager
  3
AcMeServices
 90
        0
280
     0
281
     0
  0
CLASS
  1
AMDTINTERNALREACTOR
  2
AmdtInternalReactor
  3
AcMeServices
 90
        0
280
     0
281
     0
  0
CLASS
  1
ACMESTATEMGR
  2
AcMeStateMgr
  3
AcMeServices
 90
        0
280
     0
281
     0
  0
CLASS
  1
ACGREFMASTER
  2
AcGrefMaster
  3
AcAttribServices
 90
        0
280
     0
281
     0
  0
CLASS
  1
ACME_DATABASE
  2
AcMeDbDatabase
  3
AcMeServices
 90
        0
280
     0
281
     0
  0
CLASS
  1
ACRFINSADJUSTERMGR
  2
AcRfInsAdjusterMgr
  3
AcMeServices
 90
        0
280
     0
281
     0
  0
CLASS
  1
ACGREFACADMASTER
  2
AcGrefacadMaster
  3
AcGrefServices
 90
        0
280
     0
281
     0
  0
CLASS
  1
AMIMASTER
  2
AmiMaster
  3
AmiServices
 90
        0
280
     0
281
     0
  0
CLASS
  1
AMGSETTINGSOBJ
  2
AmgSettingsObj
  3
"AcadM|Product Description: AutoCAD Mechanical 2000|Company: Autodesk"
 90
        0
280
     0
281
     0
  0
CLASS
  1
ACMDATADICTIONARY
  2
AcmDataDictionary
  3
"AcmSymBB|Product Description: AutoCAD Mechanical 2004 DX|Company: Autodesk"
 90
        0
280
     0
281
     0
  0
CLASS
  1
ACMDATAENTRYBLOCK
  2
AcmDataEntryBlock
  3
"AcmSymBB|Product Description: AutoCAD Mechanical 2004 DX|Company: Autodesk"
 90
    32768
280
     0
281
     0
  0
CLASS
  1
ACIMSTRSYSVAR
  2
AcImStrSysVar
  3
AcMeServices
 90
        0
280
     0
281
     0
  0
CLASS
  1
ACMSTANDARDDIN
  2
AcmStandardDIN
  3
"Amdt_StdImp|Product Description: AutoCAD Mechanical 2004 DX|Company: Autodesk"
 90
        0
280
     0
281
     0
  0
CLASS
  1
AMGOBJPROPCFG
  2
AmgObjPropCfg
  3
"AmgLay|Product Description: AutoCAD Mechanical 2000|Company: Autodesk"
 90
        1
280
     0
281
     0
  0
CLASS
  1
AMDTEDGESTANDARDDIN
  2
AmdtEdgeStdDIN
  3
"Amdt_StdImp|Product Description: AutoCAD Mechanical 2004 DX|Company: Autodesk"
 90
    32768
280
     0
281
     0
  0
CLASS
  1
ACMSURFSTANDARDDIN
  2
AcmSurfTextStdDIN
  3
"Amdt_StdImp|Product Description: AutoCAD Mechanical 2004 DX|Company: Autodesk"
 90
        0
280
     0
281
     0
  0
CLASS
  1
ACMFCFSTANDARDDIN
  2
AcmFCFStdDIN
  3
"Amdt_StdImp|Product Description: AutoCAD Mechanical 2004 DX|Company: Autodesk"
 90
        0
280
     0
281
     0
  0
CLASS
  1
ACMWELDSTANDARDDIN
  2
AcmWeldingStdDIN
  3
"Amdt_StdImp|Product Description: AutoCAD Mechanical 2004 DX|Company: Autodesk"
 90
        0
280
     0
281
     0
  0
CLASS
  1
ACMIDSTANDARDDIN
  2
AcmIdStdDIN
  3
"Amdt_StdImp|Product Description: AutoCAD Mechanical 2004 DX|Company: Autodesk"
 90
        0
280
     0
281
     0
  0
CLASS
  1
ACMDATUMSTANDARDDIN
  2
AcmDatumStdDIN
  3
"Amdt_StdImp|Product Description: AutoCAD Mechanical 2004 DX|Company: Autodesk"
 90
        0
280
     0
281
     0
  0
CLASS
  1
ACMBOMSTANDARDDIN
  2
AcmBOMStdDIN
  3
"Amdt_StdImp|Product Description: AutoCAD Mechanical 2004 DX|Company: Autodesk"
 90
        0
280
     0
281
     0
  0
CLASS
  1
ACMDETAILSTANDARDDIN
  2
AmdtDetailSymStdDIN
  3
"Amdt_StdImp|Product Description: AutoCAD Mechanical 2004 DX|Company: Autodesk"
 90
        0
280
     0
281
     0
  0
CLASS
  1
ACMSECTIONSTANDARDDIN
  2
AmdtSectionSymStdDIN
  3
"Amdt_StdImp|Product Description: AutoCAD Mechanical 2004 DX|Company: Autodesk"
 90
        0
280
     0
281
     0
  0
CLASS
  1
ACMCENTERLINESTANDARDDIN
  2
AmdtCenterLineStdDIN
  3
"Amdt_StdImp|Product Description: AutoCAD Mechanical 2004 DX|Company: Autodesk"
 90
        0
280
     0
281
     0
  0
CLASS
  1
ACMNOTESTANDARDDIN
  2
AmdtNoteStdDIN
  3
"Amdt_StdImp|Product Description: AutoCAD Mechanical 2004 DX|Company: Autodesk"
 90
        0
280
     0
281
     0
  0
CLASS
  1
ACAMGLAYSTD
  2
AcAmgLayStd
  3
"AcAmgLayStd|Product Description: AutoCAD Mechanical 2000|Company: Autodesk"
 90
        0
280
     0
281
     0
  0
CLASS
  1
ACAMGDIMSTD
  2
AcAmgDimStd
  3
"AcAmgDimStd|Product Description: AutoCAD Mechanical 2000|Company: Autodesk"
 90
        0
280
     0
281
     0
  0
CLASS
  1
ACAMGHOLECHARTSTDDIN
  2
AcAmgHoleChartStdDIN
  3
ACMSYMBB_MODULE_NAME
 90
        0
280
     0
281
     0
  0
CLASS
  1
ACAMGTITLESTD
  2
AcAmgTitleStd
  3
"TITLEAPP"
 90
        0
280
     0
281
     0
  0
CLASS
  1
ACAMGFILTERDAT
  2
AcAmgFilterDat
  3
"AcadM|Product Description: AutoCAD Mechanical 2000|Company: Autodesk"
 90
    32768
280
     0
281
     0
  0
CLASS
  1
LAYER_INDEX
  2
AcDbLayerIndex
  3
ObjectDBX Classes
 90
    32768
280
     0
281
     0
  0
CLASS
  1
IDBUFFER
  2
AcDbIdBuffer
  3
ObjectDBX Classes
 90
    32768
280
     0
281
     0
  0
CLASS
  1
DICTIONARYVAR
  2
AcDbDictionaryVar
  3
ObjectDBX Classes
 90
        0
280
     0
281
     0
  0
CLASS
  1
DIMASSOC
  2
AcDbDimAssoc
  3
"AcDbDimAssoc|Product Desc:     AcDim ARX App For Dimension|Company:          Autodesk, Inc.|WEB Address:      www.autodesk.com"
 90
        0
280
     0
281
     0
  0
CLASS
  1
ACMSTANDARDANSI
  2
AcmStandardANSI
  3
"Amdt_StdImp|Product Description: AutoCAD Mechanical 2004 DX|Company: Autodesk"
 90
    32768
280
     0
281
     0
  0
CLASS
  1
ACMSURFSTANDARDANSI
  2
AcmSurfTextStdANSI
  3
"Amdt_StdImp|Product Description: AutoCAD Mechanical 2004 DX|Company: Autodesk"
 90
    32768
280
     0
281
     0
  0
CLASS
  1
ACMFCFSTANDARDANSI
  2
AcmFCFStdANSI
  3
"Amdt_StdImp|Product Description: AutoCAD Mechanical 2004 DX|Company: Autodesk"
 90
    32768
280
     0
281
     0
  0
CLASS
  1
ACMWELDSTANDARDANSI
  2
AcmWeldingStdANSI
  3
"Amdt_StdImp|Product Description: AutoCAD Mechanical 2004 DX|Company: Autodesk"
 90
    32768
280
     0
281
     0
  0
CLASS
  1
ACMIDSTANDARDANSI
  2
AcmIdStdANSI
  3
"Amdt_StdImp|Product Description: AutoCAD Mechanical 2004 DX|Company: Autodesk"
 90
    32768
280
     0
281
     0
  0
CLASS
  1
ACMDATUMSTANDARDANSI
  2
AcmDatumStdANSI
  3
"Amdt_StdImp|Product Description: AutoCAD Mechanical 2004 DX|Company: Autodesk"
 90
    32768
280
     0
281
     0
  0
CLASS
  1
ACMBOMSTANDARDANSI
  2
AcmBOMStdANSI
  3
"Amdt_StdImp|Product Description: AutoCAD Mechanical 2004 DX|Company: Autodesk"
 90
    32768
280
     0
281
     0
  0
CLASS
  1
ACMDETAILSTANDARDANSI
  2
AmdtDetailSymStdANSI
  3
"Amdt_StdImp|Product Description: AutoCAD Mechanical 2004 DX|Company: Autodesk"
 90
    32768
280
     0
281
     0
  0
CLASS
  1
ACMSECTIONSTANDARDANSI
  2
AmdtSectionSymStdANSI
  3
"Amdt_StdImp|Product Description: AutoCAD Mechanical 2004 DX|Company: Autodesk"
 90
    32768
280
     0
281
     0
  0
CLASS
  1
ACMCENTERLINESTANDARDANSI
  2
AmdtCenterLineStdANSI
  3
"Amdt_StdImp|Product Description: AutoCAD Mechanical 2004 DX|Company: Autodesk"
 90
    32768
280
     0
281
     0
  0
CLASS
  1
ACMNOTESTANDARDANSI
  2
AmdtNoteStdANSI
  3
"Amdt_StdImp|Product Description: AutoCAD Mechanical 2004 DX|Company: Autodesk"
 90
    32768
280
     0
281
     0
  0
CLASS
  1
ACAMGHOLECHARTSTDANSI
  2
AcAmgHoleChartStdANSI
  3
ACMSYMBB_MODULE_NAME
 90
    32768
280
     0
281
     0
  0
CLASS
  1
ACDBLINERES
  2
AcDbLineRes
  3
AcGrefServices
 90
    32768
280
     0
281
     0
  0
CLASS
  1
AMDTNOTE
  2
AmdtNote
  3
"AcmSymBB|Product Description: AutoCAD Mechanical 2004 DX|Company: Autodesk"
 90
    33791
280
     0
281
     1
  0
CLASS
  1
AMDTFORMULAUPDATEDISPATCHER
  2
AmdtFormulaUpdateDispatcher
  3
AcMeServices
 90
    32768
280
     0
281
     0
  0
CLASS
  1
AMDTDETAILSYM
  2
AmdtDetailSym
  3
"AcmSymBB|Product Description: AutoCAD Mechanical 2004 DX|Company: Autodesk"
 90
    33791
280
     0
281
     1
  0
CLASS
  1
AMDTDETAILSYMLABEL
  2
AmdtDetailSymLabel
  3
"AcmSymBB|Product Description: AutoCAD Mechanical 2004 DX|Company: Autodesk"
 90
    33791
280
     0
281
     1
  0
CLASS
  1
ACDBDIMENSIONRES
  2
AcDbDimensionRes
  3
"AcDbDimensionRes|Product Description: AutoCAD Mechanical 2000|Company: Autodesk"
 90
    32768
280
     0
281
     0
  0
CLASS
  1
TABLESTYLE
  2
AcDbTableStyle
  3
ObjectDBX Classes
 90
     2047
280
     0
281
     0
  0
CLASS
  1
AM_DRAWING_MGR
  2
AcDmDwgMgr
  3
AcMechDwgViewMgmt
 90
        0
280
     0
281
     0
  0
CLASS
  1
AM_DWG_DOCUMENT
  2
AcDmDwgDocument
  3
AcMechDwgViewMgmt
 90
        0
280
     0
281
     0
  0
CLASS
  1
AM_DWG_SHEET
  2
AcDmSheet
  3
AcMechDwgViewMgmt
 90
        0
280
     0
281
     0
  0
CLASS
  1
AM_VIEWDIMPARMAP
  2
AcDmViewDimParMap
  3
AcMechDwgViewMgmt
 90
        0
280
     0
281
     0
  0
CLASS
  1
AM_DWGMGR_NAME
  2
AcDmDwgMgrName
  3
AcMechDwgViewMgmt
 90
        0
280
     0
281
     0
  0
CLASS
  1
AMDTMENUSTATEMGR
  2
AmdtMenuStateMgr
  3
McadcomServices
 90
        0
280
     0
281
     0
  0
CLASS
  1
AMDTMCOMMENUSTATE
  2
AmdtMcomMenuState
  3
McadcomServices
 90
        0
280
     0
281
     0
  0
CLASS
  1
MAPIAMMOUDLE
  2
MApiAmModule
  3
MApiAmServices
 90
        0
280
     0
281
     0
  0
CLASS
  1
AMDTADMENUSTATE
  2
AmdtAdMenuState
  3
DesignerServices
 90
        0
280
     0
281
     0
  0
CLASS
  1
ADAPPL
  2
AcAdAppl
  3
DesignerServices
 90
        0
280
     0
281
     0
  0
CLASS
  1
DEPMGR
  2
AcAdDepMgr
  3
DesignerServices
 90
        0
280
     0
281
     0
  0
CLASS
  1
PARAMMGR
  2
AcAdParamMgr
  3
DesignerServices
 90
        0
280
     0
281
     0
  0
CLASS
  1
PARAMSCOPE
  2
AcAdParamScope
  3
DesignerServices
 90
        0
280
     0
281
     0
  0
CLASS
  1
NAMEDAPPL
  2
AcAdNamedAppl
  3
DesignerServices
 90
        0
280
     0
281
     0
  0
CLASS
  1
AMDTDMMENUSTATE
  2
AmdtDmMenuState
  3
AcMechDwgViewMgmt
 90
        0
280
     0
281
     0
  0
CLASS
  1
AMDTAMMENUSTATE
  2
AmdtAmMenuState
  3
DesignerAssemblies
 90
        0
280
     0
281
     0
  0
CLASS
  1
ACAMPROJECT
  2
AcAmProject
  3
DesignerAssemblies
 90
        0
280
     0
281
     0
  0
CLASS
  1
ACAMGRCOMPDEF
  2
AcAmGrCompDef
  3
DesignerAssemblies
 90
        0
280
     0
281
     0
  0
CLASS
  1
ACCMCONTEXT
  2
AcCmContext
  3
DesignerAssemblies
 90
        0
280
     0
281
     0
  0
CLASS
  1
ACAMCOMPDEF
  2
AcAmCompDef
  3
DesignerAssemblies
 90
        0
280
     0
281
     0
  0
CLASS
  1
ACAMCOMPDEFMGR
  2
AcAmCompDefMgr
  3
DesignerAssemblies
 90
        0
280
     0
281
     0
  0
CLASS
  1
AMCONTEXTMGR
  2
AcAmContextMgr
  3
DesignerAssemblies
 90
        0
280
     0
281
     0
  0
CLASS
  1
ACAMCONTEXTMODELER
  2
AcAmContextModeler
  3
DesignerAssemblies
 90
        0
280
     0
281
     0
  0
CLASS
  1
ACMTHREADLINESTANDARDDIN
  2
AmdtThreadLineStdDIN
  3
"Amdt_StdImp|Product Description: AutoCAD Mechanical 2004 DX|Company: Autodesk"
 90
        0
280
     0
281
     0
  0
CLASS
  1
ACMTHREADLINESTANDARDANSI
  2
AmdtThreadLineStdANSI
  3
"Amdt_StdImp|Product Description: AutoCAD Mechanical 2004 DX|Company: Autodesk"
 90
    32768
280
     0
281
     0
  0
CLASS
  1
CATALOGSTATE
  2
AcAmCatalogState
  3
DesignerAssemblies
 90
        0
280
     0
281
     0
  0
CLASS
  1
ACAMGRCOMPDEFSET
  2
AcAmGrCompDefSet
  3
DesignerAssemblies
 90
        0
280
     0
281
     0
  0
CLASS
  1
AMDTBROWSERDBTAB
  2
AmdtBrowserDbTab
  3
McadcomServices
 90
        0
280
     0
281
     0
  0
CLASS
  1
CBROWSERAPPOBJECT
  2
CBrowserAppObject
  3
McadcomServices
 90
        0
280
     0
281
     0
  0
CLASS
  1
DM_PLACEHOLDER
  2
AcDmSelsetPlaceholder
  3
AcMechDwgViewMgmt
 90
        0
280
     0
281
     0
  0
CLASS
  1
SORTENTSTABLE
  2
AcDbSortentsTable
  3
ObjectDBX Classes
 90
        0
280
     0
281
     0
  0
CLASS
  1
AMDTEDGESTANDARDDIN13715
  2
AmdtEdgeStdDIN13715
  3
"Amdt_StdImp|Product Description: AutoCAD Mechanical 2004 DX|Company: Autodesk"
 90
        0
280
     0
281
     0
  0
CLASS
  1
AMDTNOTETEMPLATEDB
  2
AmdtNoteTemplateDB
  3
AMDT_STDIMP_MODULE_NAME
 90
        0
280
     0
281
     0
  0
ENDSEC
  0
SECTION
  2
TABLES
  0
TABLE
  2
VPORT
  5
8
330
0
100
AcDbSymbolTable
 70
     1
  0
VPORT
  5
6DA7
330
8
100
AcDbSymbolTableRecord
100
AcDbViewportTableRecord
  2
*Active
 70
     0
 10
0.0
 20
0.0
 11
1.0
 21
1.0
 12
387.2474366986539
 22
230.4156618410634
 13
0.0
 23
0.0
 14
2.5
 24
2.5
 15
10.0
 25
10.0
 16
0.0
 26
0.0
 36
1.0
 17
0.0
 27
0.0
 37
0.0
 40
463.8716017057911
 41
2.188709677419354
 42
50.0
 43
0.0
 44
0.0
 50
0.0
 51
0.0
 71
    16
 72
   100
 73
     1
 74
     3
 75
     0
 76
     0
 77
     0
 78
     0
281
     0
 65
     1
110
0.0
120
0.0
130
0.0
111
1.0
121
0.0
131
0.0
112
0.0
122
1.0
132
0.0
 79
     0
146
0.0
  0
ENDTAB
  0
TABLE
  2
LTYPE
  5
5
330
0
100
AcDbSymbolTable
 70
    19
  0
LTYPE
  5
14
330
5
100
AcDbSymbolTableRecord
100
AcDbLinetypeTableRecord
  2
ByBlock
 70
     0
  3

 72
    65
 73
     0
 40
0.0
  0
LTYPE
  5
15
330
5
100
AcDbSymbolTableRecord
100
AcDbLinetypeTableRecord
  2
ByLayer
 70
     0
  3

 72
    65
 73
     0
 40
0.0
  0
LTYPE
  5
16
330
5
100
AcDbSymbolTableRecord
100
AcDbLinetypeTableRecord
  2
Continuous
 70
     0
  3
Solid line
 72
    65
 73
     0
 40
0.0
  0
LTYPE
  5
50
330
5
100
AcDbSymbolTableRecord
100
AcDbLinetypeTableRecord
  2
Amconstr
 70
     0
  3
_______________________
 72
    65
 73
     2
 40
9999.0
 49
9999.0
 74
     0
 49
0.0
 74
     0
  0
LTYPE
  5
55
330
5
100
AcDbSymbolTableRecord
100
AcDbLinetypeTableRecord
  2
Amzigzag
 70
     0
  3
/\/-/\/-/\/-/\/-/\/-/\/
 72
    65
 73
     2
 40
11.0001
 49
0.0001
 74
     4
 75
   135
340
54
 46
0.04
 50
0.0
 44
0.0
 45
0.0
 49
-11.0
 74
     0
  0
LTYPE
  5
56
330
5
100
AcDbSymbolTableRecord
100
AcDbLinetypeTableRecord
  2
AM_DIN_F_W050
 70
     0
  3
__ __ __ __ __ __ __ __ __ __ __ __ __ __ __
 72
    65
 73
     2
 40
6.25
 49
4.75
 74
     0
 49
-1.5
 74
     0
  0
LTYPE
  5
57
330
5
100
AcDbSymbolTableRecord
100
AcDbLinetypeTableRecord
  2
AM_DIN_G_W050
 70
     0
  3
____ . ____ . ____ . ____ . ____ . ____ . ____
 72
    65
 73
     4
 40
13.75
 49
9.75
 74
     0
 49
-1.5
 74
     0
 49
1.0
 74
     0
 49
-1.5
 74
     0
  0
LTYPE
  5
58
330
5
100
AcDbSymbolTableRecord
100
AcDbLinetypeTableRecord
  2
AM_DIN_K_W050
 70
     0
  3
_____ . . _____ . . _____ . . ____ .. ____
 72
    65
 73
     6
 40
16.25
 49
9.75
 74
     0
 49
-1.5
 74
     0
 49
1.0
 74
     0
 49
-1.5
 74
     0
 49
1.0
 74
     0
 49
-1.5
 74
     0
  0
LTYPE
  5
59
330
5
100
AcDbSymbolTableRecord
100
AcDbLinetypeTableRecord
  2
AM_DIN_G_W050x2
 70
     0
  3
__ . __ . __ . __ . __ . __
 72
    65
 73
     4
 40
6.875
 49
4.75
 74
     0
 49
-0.875
 74
     0
 49
0.375
 74
     0
 49
-0.875
 74
     0
  0
LTYPE
  5
5A
330
5
100
AcDbSymbolTableRecord
100
AcDbLinetypeTableRecord
  2
AM_DIN_F_W050x2
 70
     0
  3
 _ _ _ _ _ _ _ _ _ _ _ _
 72
    65
 73
     2
 40
3.125
 49
2.25
 74
     0
 49
-0.875
 74
     0
  0
LTYPE
  5
68
330
5
100
AcDbSymbolTableRecord
100
AcDbLinetypeTableRecord
  2
ACDINWELD
 70
     0
  3
_ _ _ _ _
 72
    65
 73
     2
 40
2.0
 49
2.0
 74
     0
 49
-1.0
 74
     0
  0
LTYPE
  5
69
330
5
100
AcDbSymbolTableRecord
100
AcDbLinetypeTableRecord
  2
ACDINTGB
 70
     0
  3
__ . . __ . .
 72
    65
 73
     6
 40
9.0
 49
4.0
 74
     0
 49
-1.0
 74
     0
 49
1.0
 74
     0
 49
-1.0
 74
     0
 49
1.0
 74
     0
 49
-1.0
 74
     0
  0
LTYPE
  5
6A
330
5
100
AcDbSymbolTableRecord
100
AcDbLinetypeTableRecord
  2
ACDINTGL
 70
     0
  3
_ _ _ _ _
 72
    65
 73
     2
 40
3.0
 49
2.0
 74
     0
 49
-1.0
 74
     0
  0
LTYPE
  5
6C
330
5
100
AcDbSymbolTableRecord
100
AcDbLinetypeTableRecord
  2
CENTER
 70
     0
  3
__ . __
 72
    65
 73
     4
 40
7.0
 49
4.0
 74
     0
 49
-1.0
 74
     0
 49
1.0
 74
     0
 49
-1.0
 74
     0
  0
LTYPE
  5
7C6
330
5
100
AcDbSymbolTableRecord
100
AcDbLinetypeTableRecord
  2
PHANTOM2
 70
     0
  3
Phantom (.5x) ___ _ _ ___ _ _ ___ _ _ ___ _ _
 72
    65
 73
     6
 40
1.25
 49
0.625
 74
     0
 49
-0.125
 74
     0
 49
0.125
 74
     0
 49
-0.125
 74
     0
 49
0.125
 74
     0
 49
-0.125
 74
     0
  0
LTYPE
  5
66CE
330
5
100
AcDbSymbolTableRecord
100
AcDbLinetypeTableRecord
  2
HIDDEN
 70
     0
  3
Verdeckt
 72
    65
 73
     2
 40
9.525
 49
6.349999999999999
 74
     0
 49
-3.174999999999999
 74
     0
  0
LTYPE
  5
6EA2
330
5
100
AcDbSymbolTableRecord
100
AcDbLinetypeTableRecord
  2
AM_ISO02W050
 70
     0
  3
__ __ __ __ __ __ __ __ __ __ __ __ __ __ __
 72
    65
 73
     2
 40
7.5
 49
6.0
 74
     0
 49
-1.5
 74
     0
  0
LTYPE
  5
6EA3
330
5
100
AcDbSymbolTableRecord
100
AcDbLinetypeTableRecord
  2
AM_ISO08W050
 70
     0
  3
____ . ____ . ____ . ____ . ____ . ____ . ____
 72
    65
 73
     4
 40
18.0
 49
12.0
 74
     0
 49
-1.5
 74
     0
 49
3.0
 74
     0
 49
-1.5
 74
     0
  0
LTYPE
  5
6EA4
330
5
100
AcDbSymbolTableRecord
100
AcDbLinetypeTableRecord
  2
AM_ISO09W050
 70
     0
  3
_____ . . _____ . . _____ . . ____ .. ____
 72
    65
 73
     6
 40
22.5
 49
12.0
 74
     0
 49
-1.5
 74
     0
 49
3.0
 74
     0
 49
-1.5
 74
     0
 49
3.0
 74
     0
 49
-1.5
 74
     0
  0
LTYPE
  5
6EA5
330
5
100
AcDbSymbolTableRecord
100
AcDbLinetypeTableRecord
  2
AM_ISO08W050x2
 70
     0
  3
__ . __ . __ . __ . __ . __
 72
    65
 73
     4
 40
9.0
 49
6.0
 74
     0
 49
-0.75
 74
     0
 49
1.5
 74
     0
 49
-0.75
 74
     0
  0
LTYPE
  5
6EA6
330
5
100
AcDbSymbolTableRecord
100
AcDbLinetypeTableRecord
  2
AM_ISO02W050x2
 70
     0
  3
 _ _ _ _ _ _ _ _ _ _ _ _
 72
    65
 73
     2
 40
3.75
 49
3.0
 74
     0
 49
-0.75
 74
     0
  0
ENDTAB
  0
TABLE
  2
LAYER
  5
2
102
{ACAD_XDICTIONARY
360
6886
102
}
330
0
100
AcDbSymbolTable
 70
    11
  0
LAYER
  5
10
330
2
100
AcDbSymbolTableRecord
100
AcDbLayerTableRecord
  2
0
 70
     0
 62
     7
  6
Continuous
370
    -3
390
F
  0
LAYER
  5
A5
330
2
100
AcDbSymbolTableRecord
100
AcDbLayerTableRecord
  2
AM_7
 70
     0
 62
     4
  6
AM_DIN_G_W050
370
    25
390
F
  0
LAYER
  5
398
330
2
100
AcDbSymbolTableRecord
100
AcDbLayerTableRecord
  2
AM_5
 70
     0
 62
     3
  6
Continuous
370
    25
390
F
  0
LAYER
  5
3A8
330
2
100
AcDbSymbolTableRecord
100
AcDbLayerTableRecord
  2
Defpoints
 70
     0
 62
     7
  6
Continuous
290
     0
370
    -3
390
F
  0
LAYER
  5
3DF
330
2
100
AcDbSymbolTableRecord
100
AcDbLayerTableRecord
  2
AM_0
 70
     0
 62
     7
  6
Continuous
370
    50
390
F
  0
LAYER
  5
736
330
2
100
AcDbSymbolTableRecord
100
AcDbLayerTableRecord
  2
AM_VIEWS
 70
     0
 62
     1
  6
Continuous
290
     0
370
    25
390
F
  0
LAYER
  5
7CC
330
2
100
AcDbSymbolTableRecord
100
AcDbLayerTableRecord
  2
AM_BOR
 70
     0
 62
     7
  6
Continuous
370
    50
390
F
  0
LAYER
  5
84F
330
2
100
AcDbSymbolTableRecord
100
AcDbLayerTableRecord
  2
RAHM2
 70
     0
 62
     1
  6
Continuous
370
    -3
390
F
  0
LAYER
  5
851
330
2
100
AcDbSymbolTableRecord
100
AcDbLayerTableRecord
  2
RAHM3
 70
     0
 62
     2
  6
Continuous
370
    -3
390
F
  0
LAYER
  5
852
330
2
100
AcDbSymbolTableRecord
100
AcDbLayerTableRecord
  2
AM_6
 70
     0
 62
     2
  6
Continuous
370
    35
390
F
  0
LAYER
  5
22ED
330
2
100
AcDbSymbolTableRecord
100
AcDbLayerTableRecord
  2
AM_3
 70
     0
 62
     6
  6
AM_DIN_F_W050
370
    25
390
F
  0
ENDTAB
  0
TABLE
  2
STYLE
  5
3
330
0
100
AcDbSymbolTable
 70
     5
  0
STYLE
  5
11
330
3
100
AcDbSymbolTableRecord
100
AcDbTextStyleTableRecord
  2
STANDARD
 70
     0
 40
0.0
 41
1.0
 50
0.0
 71
     0
 42
2.5
  3
ISOCP.SHX
  4

  0
STYLE
  5
54
330
3
100
AcDbSymbolTableRecord
100
AcDbTextStyleTableRecord
  2

 70
     1
 40
0.0
 41
1.0
 50
0.0
 71
     0
 42
2.5
  3
ltypeshp.shx
  4

  0
STYLE
  5
5B
330
3
100
AcDbSymbolTableRecord
100
AcDbTextStyleTableRecord
  2
ACDINTS
 70
     0
 40
1.0
 41
1.0
 50
0.0
 71
     0
 42
2.5
  3
isocp.shx
  4

  0
STYLE
  5
67
330
3
100
AcDbSymbolTableRecord
100
AcDbTextStyleTableRecord
  2
ACDINGDT
 70
     0
 40
0.0
 41
1.0
 50
0.0
 71
     0
 42
2.5
  3
AMGDT
  4

  0
STYLE
  5
854
330
3
100
AcDbSymbolTableRecord
100
AcDbTextStyleTableRecord
  2
ROMANS
 70
     0
 40
0.0
 41
1.0
 50
0.0
 71
     0
 42
2.5
  3
romans.shx
  4

  0
ENDTAB
  0
TABLE
  2
VIEW
  5
6
330
0
100
AcDbSymbolTable
 70
     6
  0
VIEW
  5
8F6
330
6
100
AcDbSymbolTableRecord
100
AcDbViewTableRecord
  2
AM_VIEW1
 70
     1
 40
155.1492537313432
 10
146.6308444995469
 20
226.0746268656717
 41
312.1160173573029
 11
0.0
 21
0.0
 31
1.0
 12
0.0
 22
0.0
 32
0.0
 42
50.0
 43
0.0
 44
0.0
 50
0.0
 71
     0
281
     0
 72
     0
  0
VIEW
  5
8F7
330
6
100
AcDbSymbolTableRecord
100
AcDbViewTableRecord
  2
AM_VIEW2
 70
     1
 40
155.1492537313432
 10
273.3655734109007
 20
226.0746268656717
 41
312.1160173573029
 11
0.0
 21
0.0
 31
1.0
 12
0.0
 22
0.0
 32
0.0
 42
50.0
 43
0.0
 44
0.0
 50
0.0
 71
     0
281
     0
 72
     0
  0
VIEW
  5
8F8
330
6
100
AcDbSymbolTableRecord
100
AcDbViewTableRecord
  2
AM_VIEW3
 70
     1
 40
155.1492537313432
 10
146.6308444995469
 20
70.92537313432834
 41
312.1160173573029
 11
0.0
 21
0.0
 31
1.0
 12
0.0
 22
0.0
 32
0.0
 42
50.0
 43
0.0
 44
0.0
 50
0.0
 71
     0
281
     0
 72
     0
  0
VIEW
  5
8F9
330
6
100
AcDbSymbolTableRecord
100
AcDbViewTableRecord
  2
AM_VIEW4
 70
     1
 40
155.1492537313432
 10
273.3655734109007
 20
70.92537313432834
 41
312.1160173573029
 11
0.0
 21
0.0
 31
1.0
 12
0.0
 22
0.0
 32
0.0
 42
50.0
 43
0.0
 44
0.0
 50
0.0
 71
     0
281
     0
 72
     0
  0
VIEW
  5
8FA
330
6
100
AcDbSymbolTableRecord
100
AcDbViewTableRecord
  2
AM_VIEW5
 70
     1
 40
155.1492537313432
 10
209.9982089552239
 20
148.4999999999999
 41
312.1160173573029
 11
0.0
 21
0.0
 31
1.0
 12
0.0
 22
0.0
 32
0.0
 42
50.0
 43
0.0
 44
0.0
 50
0.0
 71
     0
281
     0
 72
     0
  0
VIEW
  5
8FB
330
6
100
AcDbSymbolTableRecord
100
AcDbViewTableRecord
  2
AM_VIEW6
 70
     1
 40
310.2954044776119
 10
209.9982089552238
 20
148.4999999999999
 41
624.2257923942586
 11
0.0
 21
0.0
 31
1.0
 12
0.0
 22
0.0
 32
0.0
 42
50.0
 43
0.0
 44
0.0
 50
0.0
 71
     0
281
     0
 72
     0
  0
ENDTAB
  0
TABLE
  2
UCS
  5
7
330
0
100
AcDbSymbolTable
 70
     0
  0
ENDTAB
  0
TABLE
  2
APPID
  5
9
330
0
100
AcDbSymbolTable
 70
    43
  0
APPID
  5
12
330
9
100
AcDbSymbolTableRecord
100
AcDbRegAppTableRecord
  2
ACAD
 70
     0
  0
APPID
  5
2C
330
9
100
AcDbSymbolTableRecord
100
AcDbRegAppTableRecord
  2
MCAD_NO_VIS
 70
     0
  0
APPID
  5
2D
330
9
100
AcDbSymbolTableRecord
100
AcDbRegAppTableRecord
  2
ACAD_TEMP_GRAPHIC
 70
     0
  0
APPID
  5
3E
330
9
100
AcDbSymbolTableRecord
100
AcDbRegAppTableRecord
  2
ACATTRIBSERVICES
 70
     0
  0
APPID
  5
96
330
9
100
AcDbSymbolTableRecord
100
AcDbRegAppTableRecord
  2
GENIUS_GENREC_14
 70
     0
  0
APPID
  5
97
330
9
100
AcDbSymbolTableRecord
100
AcDbRegAppTableRecord
  2
GENIUS_GENODEF_13
 70
     0
  0
APPID
  5
98
330
9
100
AcDbSymbolTableRecord
100
AcDbRegAppTableRecord
  2
GENIUS_GENOBJ-N-REC_13
 70
     0
  0
APPID
  5
A7
330
9
100
AcDbSymbolTableRecord
100
AcDbRegAppTableRecord
  2
GENIUS_GENOBJ-N-CEN_13
 70
     0
  0
APPID
  5
16E
330
9
100
AcDbSymbolTableRecord
100
AcDbRegAppTableRecord
  2
GENIUS_GENOLIS_13
 70
     0
  0
APPID
  5
16F
330
9
100
AcDbSymbolTableRecord
100
AcDbRegAppTableRecord
  2
GENIUS_GENOENT_13
 70
     0
  0
APPID
  5
170
330
9
100
AcDbSymbolTableRecord
100
AcDbRegAppTableRecord
  2
GENIUS_GENOBJ-N-CRS_13
 70
     0
  0
APPID
  5
171
330
9
100
AcDbSymbolTableRecord
100
AcDbRegAppTableRecord
  2
GENIUS_GENOREF_13
 70
     0
  0
APPID
  5
5CF
330
9
100
AcDbSymbolTableRecord
100
AcDbRegAppTableRecord
  2
ACAD_DIMASSOC_DIMLFAC
 70
     0
  0
APPID
  5
737
330
9
100
AcDbSymbolTableRecord
100
AcDbRegAppTableRecord
  2
GENIUS_GENSCREG_15
 70
     0
  0
APPID
  5
738
330
9
100
AcDbSymbolTableRecord
100
AcDbRegAppTableRecord
  2
GENIUS_GENOBJ-N-SDF_13
 70
     0
  0
APPID
  5
7D6
330
9
100
AcDbSymbolTableRecord
100
AcDbRegAppTableRecord
  2
GENIUS_GENBLLY_14
 70
     0
  0
APPID
  5
855
330
9
100
AcDbSymbolTableRecord
100
AcDbRegAppTableRecord
  2
GENIUS_GENTRA_14
 70
     0
  0
APPID
  5
856
330
9
100
AcDbSymbolTableRecord
100
AcDbRegAppTableRecord
  2
GENIUS_AMGTXT_16
 70
     0
  0
APPID
  5
8F4
330
9
100
AcDbSymbolTableRecord
100
AcDbRegAppTableRecord
  2
GENIUS_GENOBJ-N-TIT_13
 70
     0
  0
APPID
  5
8F5
330
9
100
AcDbSymbolTableRecord
100
AcDbRegAppTableRecord
  2
GENIUS_GENTITLE_13
 70
     0
  0
APPID
  5
925
330
9
100
AcDbSymbolTableRecord
100
AcDbRegAppTableRecord
  2
GENIUS_GENDIMSH_14
 70
     0
  0
APPID
  5
E66
330
9
100
AcDbSymbolTableRecord
100
AcDbRegAppTableRecord
  2
GENIUS_GENOBJ-N-ZOO_13
 70
     0
  0
APPID
  5
E67
330
9
100
AcDbSymbolTableRecord
100
AcDbRegAppTableRecord
  2
GENIUS_GENZOO_16
 70
     0
  0
APPID
  5
29C6
330
9
100
AcDbSymbolTableRecord
100
AcDbRegAppTableRecord
  2
GENIUS_GENDTOL_13
 70
     0
  0
APPID
  5
320C
330
9
100
AcDbSymbolTableRecord
100
AcDbRegAppTableRecord
  2
GENIUS_GENOBJ-N-HTC_13
 70
     0
  0
APPID
  5
320D
330
9
100
AcDbSymbolTableRecord
100
AcDbRegAppTableRecord
  2
GENIUS_GENHATCH_13
 70
     0
  0
APPID
  5
5443
330
9
100
AcDbSymbolTableRecord
100
AcDbRegAppTableRecord
  2
GENIUS_GENOBJ-F-SHCL_13
 70
     0
  0
APPID
  5
5444
330
9
100
AcDbSymbolTableRecord
100
AcDbRegAppTableRecord
  2
GENIUS_GEFMSH_13
 70
     0
  0
APPID
  5
5445
330
9
100
AcDbSymbolTableRecord
100
AcDbRegAppTableRecord
  2
GENIUS_GEFSH_13
 70
     0
  0
APPID
  5
5446
330
9
100
AcDbSymbolTableRecord
100
AcDbRegAppTableRecord
  2
GENIUS_GEFSHP_13
 70
     0
  0
APPID
  5
5454
330
9
100
AcDbSymbolTableRecord
100
AcDbRegAppTableRecord
  2
GENIUS_GENOBJ-F-SHS_13
 70
     0
  0
APPID
  5
66D0
330
9
100
AcDbSymbolTableRecord
100
AcDbRegAppTableRecord
  2
AD_DRAW
 70
     0
  0
APPID
  5
66EE
330
9
100
AcDbSymbolTableRecord
100
AcDbRegAppTableRecord
  2
DESIGNERASSEMBLIES
 70
     0
  0
APPID
  5
66F7
330
9
100
AcDbSymbolTableRecord
100
AcDbRegAppTableRecord
  2
ACAD_DSTYLE_DIMARC_LENGTH_SYMBOL
 70
     0
  0
APPID
  5
66F8
330
9
100
AcDbSymbolTableRecord
100
AcDbRegAppTableRecord
  2
ACAD_DSTYLE_DIMJOGGED_JOGANGLE_SYMBOL
 70
     0
  0
APPID
  5
6715
330
9
100
AcDbSymbolTableRecord
100
AcDbRegAppTableRecord
  2
ACADM_DIM_EDIT
 70
     0
  0
APPID
  5
6716
330
9
100
AcDbSymbolTableRecord
100
AcDbRegAppTableRecord
  2
AMDT_DM_ADJ
 70
     0
  0
APPID
  5
671E
330
9
100
AcDbSymbolTableRecord
100
AcDbRegAppTableRecord
  2
ACAD_EXEMPT_FROM_CAD_STANDARDS
 70
     0
  0
APPID
  5
676E
330
9
100
AcDbSymbolTableRecord
100
AcDbRegAppTableRecord
  2
ACAD_PSEXT
 70
     0
  0
APPID
  5
690D
330
9
100
AcDbSymbolTableRecord
100
AcDbRegAppTableRecord
  2
GENIUS_GENCEN_19
 70
     0
  0
APPID
  5
6AAB
330
9
100
AcDbSymbolTableRecord
100
AcDbRegAppTableRecord
  2
ACAD_DIMASSOC_CALC_DIMLFAC
 70
     0
  0
APPID
  5
6AAC
330
9
100
AcDbSymbolTableRecord
100
AcDbRegAppTableRecord
  2
ACAD_DIMASSOC_OVERRIDDEN_DIMLFAC
 70
     0
  0
APPID
  5
6AF3
330
9
100
AcDbSymbolTableRecord
100
AcDbRegAppTableRecord
  2
AcAecLayerStandard
 70
     0
  0
ENDTAB
  0
TABLE
  2
DIMSTYLE
  5
A
330
0
100
AcDbSymbolTable
 70
     9
100
AcDbDimStyleTable
 71
     1
340
6F
  0
DIMSTYLE
105
6F
102
{ACAD_REACTORS
330
1E58
330
1E57
330
1E56
330
1E5D
330
1E5C
330
1E5B
330
1E5A
330
1E59
330
1E60
330
1E63
330
1E65
330
1E66
330
1E6A
330
1E53
330
1E67
330
200E
330
2CAA
330
570D
102
}
330
A
100
AcDbSymbolTableRecord
100
AcDbDimStyleTableRecord
  2
AM_DIN
 70
     0
  4
"
 41
2.5
 42
1.0
 43
10.0
 44
1.0
 47
0.1
 48
0.1
 73
     0
 74
     0
 77
     1
 78
     8
 79
     2
140
3.5
141
0.0
143
0.0393701
146
0.71
147
1.5
172
     1
176
   256
177
   256
178
     2
271
     2
272
     3
274
     4
283
     0
284
     8
340
11
371
    -1
372
    -1
1001
ACAD_DSTYLE_DIMARC_LENGTH_SYMBOL
1070
   379
1070
     0
1001
ACAD_DSTYLE_DIMJOGGED_JOGANGLE_SYMBOL
1070
   384
1040
1.570796326794896
  0
DIMSTYLE
105
70
102
{ACAD_REACTORS
330
1E5E
102
}
330
A
100
AcDbSymbolTableRecord
100
AcDbDimStyleTableRecord
  2
AM_DIN$3
 70
     0
  4
"
 41
2.5
 42
1.0
 43
10.0
 44
1.0
 47
0.1
 48
0.1
 73
     0
 77
     1
 78
     8
 79
     2
140
3.5
141
0.0
143
0.0393701
146
0.71
147
1.5
176
   256
177
   256
178
     2
271
     2
272
     3
274
     4
283
     0
284
     8
288
     1
289
     0
340
11
371
    -1
372
    -1
1001
ACAD_DSTYLE_DIMARC_LENGTH_SYMBOL
1070
   379
1070
     0
1001
ACAD_DSTYLE_DIMJOGGED_JOGANGLE_SYMBOL
1070
   384
1040
1.570796326794896
  0
DIMSTYLE
105
71
102
{ACAD_REACTORS
330
1E5F
102
}
330
A
100
AcDbSymbolTableRecord
100
AcDbDimStyleTableRecord
  2
AM_DIN$4
 70
     0
  4
"
 41
2.5
 42
1.0
 43
10.0
 44
1.0
 47
0.1
 48
0.1
 73
     0
 77
     1
 78
     8
 79
     2
140
3.5
141
0.0
143
0.0393701
146
0.71
147
1.5
176
   256
177
   256
178
     2
271
     2
272
     3
274
     4
283
     0
284
     8
288
     1
289
     0
340
11
371
    -1
372
    -1
1001
ACAD_DSTYLE_DIMARC_LENGTH_SYMBOL
1070
   379
1070
     0
1001
ACAD_DSTYLE_DIMJOGGED_JOGANGLE_SYMBOL
1070
   384
1040
1.570796326794896
  0
DIMSTYLE
105
72
330
A
100
AcDbSymbolTableRecord
100
AcDbDimStyleTableRecord
  2
AM_DIN$6
 70
     0
  4
"
 41
2.5
 42
1.0
 43
10.0
 44
1.0
 47
0.1
 48
0.1
 73
     0
 74
     0
 78
     8
 79
     2
140
3.5
141
0.0
143
0.0393701
146
0.71
147
1.5
172
     1
176
   256
177
   256
178
     2
271
     2
272
     3
274
     4
283
     0
284
     8
340
11
371
    -1
372
    -1
1001
ACAD_DSTYLE_DIMARC_LENGTH_SYMBOL
1070
   379
1070
     0
1001
ACAD_DSTYLE_DIMJOGGED_JOGANGLE_SYMBOL
1070
   384
1040
1.570796326794896
  0
DIMSTYLE
105
73
330
A
100
AcDbSymbolTableRecord
100
AcDbDimStyleTableRecord
  2
AM_DIN$7
 70
     0
  4
"
 41
2.5
 42
1.0
 43
10.0
 44
1.0
 47
0.1
 48
0.1
 73
     0
 74
     0
 77
     1
 78
     8
 79
     2
140
5.0
141
0.0
143
0.0393701
146
0.71
147
1.5
172
     1
176
   256
177
   256
178
     2
271
     2
272
     3
274
     4
283
     0
284
     8
340
11
371
    -1
372
    -1
1001
ACAD_DSTYLE_DIMARC_LENGTH_SYMBOL
1070
   379
1070
     0
1001
ACAD_DSTYLE_DIMJOGGED_JOGANGLE_SYMBOL
1070
   384
1040
1.570796326794896
  0
DIMSTYLE
105
74
330
A
100
AcDbSymbolTableRecord
100
AcDbDimStyleTableRecord
  2
AM_DIN$SF
 70
     0
  4
"
 41
2.5
 42
1.0
 43
10.0
 44
1.0
 47
0.1
 48
0.1
 73
     0
 74
     0
 75
     1
 76
     1
 77
     1
 78
     8
 79
     2
140
3.5
141
0.0
143
0.0393701
146
0.71
147
1.5
172
     1
176
   256
177
   256
178
     2
271
     2
272
     3
274
     4
283
     0
284
     8
340
11
371
    -1
372
    -1
1001
ACAD_DSTYLE_DIMARC_LENGTH_SYMBOL
1070
   379
1070
     0
1001
ACAD_DSTYLE_DIMJOGGED_JOGANGLE_SYMBOL
1070
   384
1040
1.570796326794896
  0
DIMSTYLE
105
79
330
A
100
AcDbSymbolTableRecord
100
AcDbDimStyleTableRecord
  2
AM_DIN$SH
 70
     0
  4
"
 41
2.5
 42
1.0
 43
10.0
 44
1.0
 47
0.1
 48
0.1
 73
     0
 74
     0
 75
     1
 76
     1
 77
     1
 78
     8
 79
     2
140
3.5
141
0.0
143
0.0393701
144
2.0
146
0.71
147
1.5
172
     1
173
     1
176
   256
177
   256
178
     2
271
     2
272
     3
274
     4
283
     0
284
     8
340
11
343
75
371
    -1
372
    -1
1001
ACAD_DSTYLE_DIMARC_LENGTH_SYMBOL
1070
   379
1070
     0
1001
ACAD_DSTYLE_DIMJOGGED_JOGANGLE_SYMBOL
1070
   384
1040
1.570796326794896
  0
DIMSTYLE
105
7CF
330
A
100
AcDbSymbolTableRecord
100
AcDbDimStyleTableRecord
  2
Standard
 70
     0
340
11
  0
DIMSTYLE
105
691A
102
{ACAD_REACTORS
330
1E58
330
1E57
330
1E56
330
1E5D
330
1E5C
330
1E5B
330
1E5A
330
1E59
330
1E60
330
1E63
330
1E65
330
1E66
330
1E6A
330
1E53
330
1E67
330
200E
330
2CAA
330
570D
330
6B44
330
6C36
102
}
330
A
100
AcDbSymbolTableRecord
100
AcDbDimStyleTableRecord
  2
AM_DIN$0
 70
     0
  4
"
 41
2.5
 42
1.0
 43
10.0
 44
1.0
 47
0.1
 48
0.1
 73
     0
 74
     0
 77
     1
 78
     8
 79
     2
140
3.5
141
0.0
143
0.0393701
146
0.71
147
1.5
172
     1
176
   256
177
   256
178
     2
271
     2
272
     3
274
     4
283
     0
284
     8
340
11
371
    -1
372
    -1
1001
ACAD_DSTYLE_DIMARC_LENGTH_SYMBOL
1070
   379
1070
     0
1001
ACAD_DSTYLE_DIMJOGGED_JOGANGLE_SYMBOL
1070
   384
1040
1.570796326794896
  0
ENDTAB
  0
TABLE
  2
BLOCK_RECORD
  5
1
330
0
100
AcDbSymbolTable
 70
    27
  0
BLOCK_RECORD
  5
1F
102
{ACAD_XDICTIONARY
360
332
102
}
330
1
100
AcDbSymbolTableRecord
100
AcDbBlockTableRecord
  2
*Model_Space
340
22
  0
BLOCK_RECORD
  5
2E6A
330
1
100
AcDbSymbolTableRecord
100
AcDbBlockTableRecord
  2
*Paper_Space
340
2E7A
  0
BLOCK_RECORD
  5
75
330
1
100
AcDbSymbolTableRecord
100
AcDbBlockTableRecord
  2
GENAXEH
340
0
  0
BLOCK_RECORD
  5
857
330
1
100
AcDbSymbolTableRecord
100
AcDbBlockTableRecord
  2
WB_KOPF_K
340
0
102
{BLKREFS
331
5A18
102
}
  0
BLOCK_RECORD
  5
13B5
330
1
100
AcDbSymbolTableRecord
100
AcDbBlockTableRecord
  2
DIN-A3
340
0
102
{BLKREFS
331
2E6C
102
}
  0
BLOCK_RECORD
  5
1E6D
330
1
100
AcDbSymbolTableRecord
100
AcDbBlockTableRecord
  2
*D3
340
0
  0
BLOCK_RECORD
  5
1E79
330
1
100
AcDbSymbolTableRecord
100
AcDbBlockTableRecord
  2
*D4
340
0
  0
BLOCK_RECORD
  5
1E85
330
1
100
AcDbSymbolTableRecord
100
AcDbBlockTableRecord
  2
*D5
340
0
  0
BLOCK_RECORD
  5
1E91
330
1
100
AcDbSymbolTableRecord
100
AcDbBlockTableRecord
  2
*D6
340
0
  0
BLOCK_RECORD
  5
1E9D
330
1
100
AcDbSymbolTableRecord
100
AcDbBlockTableRecord
  2
*D7
340
0
  0
BLOCK_RECORD
  5
1EA9
330
1
100
AcDbSymbolTableRecord
100
AcDbBlockTableRecord
  2
*D8
340
0
  0
BLOCK_RECORD
  5
1EB5
330
1
100
AcDbSymbolTableRecord
100
AcDbBlockTableRecord
  2
*D9
340
0
  0
BLOCK_RECORD
  5
1EC1
330
1
100
AcDbSymbolTableRecord
100
AcDbBlockTableRecord
  2
*D10
340
0
  0
BLOCK_RECORD
  5
1ECD
330
1
100
AcDbSymbolTableRecord
100
AcDbBlockTableRecord
  2
*D11
340
0
  0
BLOCK_RECORD
  5
1ED6
330
1
100
AcDbSymbolTableRecord
100
AcDbBlockTableRecord
  2
*D12
340
0
  0
BLOCK_RECORD
  5
1EE2
330
1
100
AcDbSymbolTableRecord
100
AcDbBlockTableRecord
  2
*D13
340
0
  0
BLOCK_RECORD
  5
1F04
330
1
100
AcDbSymbolTableRecord
100
AcDbBlockTableRecord
  2
*D14
340
0
  0
BLOCK_RECORD
  5
1F10
330
1
100
AcDbSymbolTableRecord
100
AcDbBlockTableRecord
  2
*D15
340
0
  0
BLOCK_RECORD
  5
1F1C
330
1
100
AcDbSymbolTableRecord
100
AcDbBlockTableRecord
  2
*D16
340
0
  0
BLOCK_RECORD
  5
1FB3
330
1
100
AcDbSymbolTableRecord
100
AcDbBlockTableRecord
  2
*D17
340
0
  0
BLOCK_RECORD
  5
1FBF
330
1
100
AcDbSymbolTableRecord
100
AcDbBlockTableRecord
  2
*D18
340
0
  0
BLOCK_RECORD
  5
1FCB
330
1
100
AcDbSymbolTableRecord
100
AcDbBlockTableRecord
  2
*D19
340
0
  0
BLOCK_RECORD
  5
200F
330
1
100
AcDbSymbolTableRecord
100
AcDbBlockTableRecord
  2
*D20
340
0
  0
BLOCK_RECORD
  5
2CAB
330
1
100
AcDbSymbolTableRecord
100
AcDbBlockTableRecord
  2
*D21
340
0
  0
BLOCK_RECORD
  5
570E
330
1
100
AcDbSymbolTableRecord
100
AcDbBlockTableRecord
  2
*D22
340
0
  0
BLOCK_RECORD
  5
6B45
330
1
100
AcDbSymbolTableRecord
100
AcDbBlockTableRecord
  2
*D23
340
0
  0
BLOCK_RECORD
  5
6C37
330
1
100
AcDbSymbolTableRecord
100
AcDbBlockTableRecord
  2
*D24
340
0
  0
BLOCK_RECORD
  5
6C7F
330
1
100
AcDbSymbolTableRecord
100
AcDbBlockTableRecord
  2
*S25
340
0
102
{BLKREFS
331
3B16
102
}
  0
ENDTAB
  0
ENDSEC
  0
SECTION
  2
BLOCKS
  0
BLOCK
  5
20
330
1F
100
AcDbEntity
  8
0
100
AcDbBlockBegin
  2
*Model_Space
 70
     0
 10
0.0
 20
0.0
 30
0.0
  3
*Model_Space
  1

  0
ENDBLK
  5
21
330
1F
100
AcDbEntity
  8
0
100
AcDbBlockEnd
  0
BLOCK
  5
2E78
330
2E6A
100
AcDbEntity
 67
     1
  8
0
100
AcDbBlockBegin
  2
*Paper_Space
 70
     0
 10
0.0
 20
0.0
 30
0.0
  3
*Paper_Space
  1

  0
ENDBLK
  5
2E79
330
2E6A
100
AcDbEntity
 67
     1
  8
0
100
AcDbBlockEnd
  0
BLOCK
  5
77
330
75
100
AcDbEntity
  8
0
100
AcDbBlockBegin
  2
GENAXEH
 70
     0
 10
0.0
 20
0.0
 30
0.0
  3
GENAXEH
  1

  0
LINE
  5
76
330
75
100
AcDbEntity
  8
0
100
AcDbLine
 10
-1.0
 20
0.0
 30
0.0
 11
1.0
 21
0.0
 31
0.0
  0
ENDBLK
  5
78
330
75
100
AcDbEntity
  8
0
100
AcDbBlockEnd
  0
BLOCK
  5
59CD
330
857
100
AcDbEntity
  8
0
100
AcDbBlockBegin
  2
WB_KOPF_K
 70
     2
 10
0.0
 20
0.0
 30
0.0
  3
WB_KOPF_K
  1

  0
MTEXT
  5
59CE
330
857
100
AcDbEntity
  8
AM_BOR
100
AcDbMText
 10
-150.8799999999998
 20
14.34642053116684
 30
0.0
 40
7.0
 41
43.42999999999999
 71
     5
 72
     5
  1
{\fComic Sans MS|b0|i0|c0|p66;TT-Module}
 73
     1
 44
1.0
1001
GENIUS_AMGTXT_16
1040
7.0
1040
0.24
1001
ACAD
1000
MTEXTBEGIN
1070
    73
1070
     1
1070
    44
1040
1.0
1070
    74
1070
     0
1000
MTEXTEND
  0
TEXT
  5
59CF
330
857
100
AcDbEntity
  8
RAHM2
100
AcDbText
 10
-16.68827451984998
 20
20.83832249703542
 30
0.0
 40
1.8
  1
Rev.
 41
0.7
  7
ROMANS
100
AcDbText
  0
LINE
  5
59D0
330
857
100
AcDbEntity
  8
RAHM2
100
AcDbLine
 10
-18.0
 20
6.375000000000028
 30
0.0
 11
-18.0
 21
23.37500000000003
 31
0.0
  0
TEXT
  5
59D1
330
857
100
AcDbEntity
  8
RAHM2
100
AcDbText
 10
-39.90827451984967
 20
3.838322497035406
 30
0.0
 40
1.8
  1
Ersetzt durch
 41
0.7
  7
ROMANS
100
AcDbText
  0
POINT
  5
59D2
330
857
100
AcDbEntity
  8
RAHM2
100
AcDbPoint
 10
0.0
 20
0.0
 30
0.0
  0
TEXT
  5
59D3
330
857
100
AcDbEntity
  8
RAHM2
100
AcDbText
 10
-39.90827451984967
 20
1.272002880645132
 30
0.0
 40
1.8
  1
Replace through
 41
0.7
  7
ROMANS
100
AcDbText
  0
LINE
  5
59D4
330
857
100
AcDbEntity
  8
RAHM2
100
AcDbLine
 10
-41.21999999999968
 20
6.375000000000028
 30
0.0
 11
-41.21999999999968
 21
0.0
 31
0.0
  0
LINE
  5
59D5
330
857
100
AcDbEntity
  8
RAHM2
100
AcDbLine
 10
-118.8799999999998
 20
6.375000000000028
 30
0.0
 11
-118.8799999999998
 21
23.37500000000006
 31
0.0
  0
TEXT
  5
59D6
330
857
100
AcDbEntity
  8
RAHM2
100
AcDbText
 10
-163.5682745198498
 20
3.838322497035406
 30
0.0
 40
1.8
  1
EDV Nr.
 41
0.7
  7
ROMANS
100
AcDbText
  0
TEXT
  5
59D7
330
857
100
AcDbEntity
  8
RAHM2
100
AcDbText
 10
-122.3482745198496
 20
3.838322497035406
 30
0.0
 40
1.8
  1
Ursprung
 41
0.7
  7
ROMANS
100
AcDbText
  0
TEXT
  5
59D8
330
857
100
AcDbEntity
  8
RAHM2
100
AcDbText
 10
-163.5682745198498
 20
1.272002880645132
 30
0.0
 40
1.8
  1
EDV no.
 41
0.7
  7
ROMANS
100
AcDbText
  0
LINE
  5
59D9
330
857
100
AcDbEntity
  8
RAHM2
100
AcDbLine
 10
-164.8799999999998
 20
6.375000000000042
 30
0.0
 11
-164.8799999999998
 21
0.0
 31
0.0
  0
LINE
  5
59DA
330
857
100
AcDbEntity
  8
RAHM2
100
AcDbLine
 10
-123.6599999999996
 20
6.375000000000028
 30
0.0
 11
-123.6599999999996
 21
0.0
 31
0.0
  0
TEXT
  5
59DB
330
857
100
AcDbEntity
  8
RAHM2
100
AcDbText
 10
-122.3482745198496
 20
1.272002880645132
 30
0.0
 40
1.8
  1
Original
 41
0.7
  7
ROMANS
100
AcDbText
  0
LINE
  5
59DC
330
857
100
AcDbEntity
  8
RAHM2
100
AcDbLine
 10
-82.43999999999994
 20
6.375000000000028
 30
0.0
 11
-82.43999999999994
 21
0.0
 31
0.0
  0
TEXT
  5
59DD
330
857
100
AcDbEntity
  8
RAHM2
100
AcDbText
 10
-181.5682745198498
 20
3.838322497035406
 30
0.0
 40
1.8
  1
Format
 41
0.7
  7
ROMANS
100
AcDbText
  0
LINE
  5
59DE
330
857
100
AcDbEntity
  8
RAHM3
100
AcDbLine
 10
-182.8799999999998
 20
23.37500000000006
 30
0.0
 11
-182.8799999999998
 21
0.0
 31
0.0
  0
TEXT
  5
59DF
330
857
100
AcDbEntity
  8
RAHM2
100
AcDbText
 10
-181.5682745198498
 20
1.272002880645132
 30
0.0
 40
1.8
  1
Format
 41
0.7
  7
ROMANS
100
AcDbText
  0
LINE
  5
59E0
330
857
100
AcDbEntity
  8
RAHM3
100
AcDbLine
 10
-182.8799999999998
 20
23.37500000000006
 30
0.0
 11
0.0
 21
23.37500000000006
 31
0.0
  0
TEXT
  5
59E1
330
857
100
AcDbEntity
  8
RAHM2
100
AcDbText
 10
-81.12827451984992
 20
3.838322497035406
 30
0.0
 40
1.8
  1
Ersatz fuer
 41
0.7
  7
ROMANS
100
AcDbText
  0
LINE
  5
59E2
330
857
100
AcDbEntity
  8
RAHM3
100
AcDbLine
 10
-182.8799999999998
 20
0.0
 30
0.0
 11
0.0
 21
0.0
 31
0.0
  0
LINE
  5
59E3
330
857
100
AcDbEntity
  8
RAHM3
100
AcDbLine
 10
-182.8799999999998
 20
6.375000000000028
 30
0.0
 11
0.0
 21
6.375000000000028
 31
0.0
  0
TEXT
  5
59E4
330
857
100
AcDbEntity
  8
RAHM2
100
AcDbText
 10
-81.12827451984992
 20
1.272002880645132
 30
0.0
 40
1.8
  1
Compensation for
 41
0.7
  7
ROMANS
100
AcDbText
  0
ATTDEF
  5
59E5
330
857
100
AcDbEntity
  8
RAHM2
100
AcDbText
 10
-1.0
 20
2.021503231489191
 30
0.0
 40
3.047999999999999
  1

 41
0.75
 72
     2
 11
-1.0
 21
2.021503231489191
 31
0.0
100
AcDbAttributeDefinition
  3
Ersatz durch
  2
ERSATZ_DURCH
 70
     0
  0
ATTDEF
  5
59E6
330
857
100
AcDbEntity
  8
RAHM2
100
AcDbText
 10
-42.21999999999968
 20
2.021503231489191
 30
0.0
 40
3.047999999999999
  1

 41
0.75
 72
     2
 11
-42.21999999999968
 21
2.021503231489191
 31
0.0
100
AcDbAttributeDefinition
  3
Alte_Zeichnungsnummer
  2
ERSATZ
 70
     0
  0
ATTDEF
  5
59E7
330
857
100
AcDbEntity
  8
RAHM2
100
AcDbText
 10
-83.43999999999994
 20
2.021503231489191
 30
0.0
 40
3.047999999999999
  1

 41
0.75
 72
     2
 11
-83.43999999999994
 21
2.021503231489191
 31
0.0
100
AcDbAttributeDefinition
  3
Ursprungszeichnung
  2
URSPRUNG
 70
     0
  0
ATTDEF
  5
59E8
330
857
100
AcDbEntity
  8
AM_BOR
 62
     1
370
    25
100
AcDbText
 10
-137.291942403353
 20
1.0
 30
0.0
 40
3.047999999999999
  1

 41
0.75
 72
     1
 11
-137.291942403353
 21
1.0
 31
0.0
100
AcDbAttributeDefinition
  3
Dateiname
  2
GEN-TITLE-DWG{8.92}
 70
     0
1001
GENIUS_GENTRA_14
1002
{
1070
     3
1000
GENTRAPR,%s,(GENMSG gendwg 82)
1000
Dateiname
1000
d
1070
     0
1070
     0
1002
}
  0
ATTDEF
  5
59E9
330
857
100
AcDbEntity
  8
AM_BOR
 62
     1
370
    25
100
AcDbText
 10
-169.4399999999998
 20
1.0
 30
0.0
 40
3.047999999999999
  1

 41
0.75
 72
     1
 11
-169.4399999999998
 21
1.0
 31
0.0
100
AcDbAttributeDefinition
  3
Format
  2
GEN-TITLE-SIZ{2.46}
 70
     0
1001
GENIUS_GENTRA_14
1002
{
1070
     3
1000
GENTRAPR,%s,(GENMSG gentitus 90)
1000
Format
1000
d
1070
     0
1070
     0
1002
}
  0
ATTDEF
  5
59EA
330
857
100
AcDbEntity
  8
AM_BOR
100
AcDbText
 10
-16.88340304846952
 20
7.357759021560951
 30
0.0
 40
6.349999999999999
  1
-
 41
0.75
100
AcDbAttributeDefinition
  3
Revision
  2
REVISION
 70
     0
1001
GENIUS_GENTRA_14
1002
{
1070
     3
1000
GENTRAPR,%s,(GENMSG genuser 1)
1000
Revision
1000
d
1070
     0
1070
     0
1002
}
  0
ATTDEF
  5
59EB
330
857
100
AcDbEntity
  8
AM_BOR
100
AcDbText
 10
-116.7917923123015
 20
11.09638664867273
 30
0.0
 40
7.0
  1
-
 41
0.75
100
AcDbAttributeDefinition
  3
Zeichnungsnummer
  2
GEN-TITLE-NR
 70
     0
1001
GENIUS_GENTRA_14
1002
{
1070
     3
1000
GENTRAPR,%s,(GENMSG gentitus 85)
1000
Zeichnungsnummer
1000
d
1070
     0
1070
     0
1002
}
  0
ENDBLK
  5
59EC
330
857
100
AcDbEntity
  8
0
100
AcDbBlockEnd
  0
BLOCK
  5
13FC
330
13B5
100
AcDbEntity
  8
0
100
AcDbBlockBegin
  2
DIN-A3
 70
     0
 10
0.0
 20
0.0
 30
0.0
  3
DIN-A3
  1

  0
LINE
  5
13B6
330
13B5
100
AcDbEntity
  8
AM_BOR
 62
     1
370
    25
100
AcDbLine
 10
420.0
 20
297.0
 30
0.0
 11
419.9999999999999
 21
0.0
 31
0.0
  0
LINE
  5
13B7
330
13B5
100
AcDbEntity
  8
AM_BOR
 62
     1
370
    25
100
AcDbLine
 10
230.0
 20
5.00000000000005
 30
0.0
 11
230.0
 21
0.0000000000000233
 31
0.0
  0
LINE
  5
13B8
330
13B5
100
AcDbEntity
  8
AM_BOR
 62
     1
370
    25
100
AcDbLine
 10
409.9999999999999
 20
10.0
 30
0.0
 11
9.999999999999943
 21
10.00000000000005
 31
0.0
  0
TEXT
  5
13B9
330
13B5
100
AcDbEntity
  8
AM_BOR
 62
     1
370
    25
100
AcDbText
 10
411.0
 20
262.0
 30
0.0
 40
4.0
  1
A
  7
ACDINTS
100
AcDbText
  0
TEXT
  5
13BA
330
13B5
100
AcDbEntity
  8
AM_BOR
 62
     1
370
    25
100
AcDbText
 10
411.0
 20
216.0
 30
0.0
 40
4.0
  1
B
  7
ACDINTS
100
AcDbText
  0
TEXT
  5
13BB
330
13B5
100
AcDbEntity
  8
AM_BOR
 62
     1
370
    25
100
AcDbText
 10
411.0
 20
170.0
 30
0.0
 40
4.0
  1
C
  7
ACDINTS
100
AcDbText
  0
TEXT
  5
13BC
330
13B5
100
AcDbEntity
  8
AM_BOR
 62
     1
370
    25
100
AcDbText
 10
411.0
 20
123.0
 30
0.0
 40
4.0
  1
D
  7
ACDINTS
100
AcDbText
  0
TEXT
  5
13BD
330
13B5
100
AcDbEntity
  8
AM_BOR
 62
     1
370
    25
100
AcDbText
 10
411.0
 20
77.0
 30
0.0
 40
4.0
  1
E
  7
ACDINTS
100
AcDbText
  0
TEXT
  5
13BE
330
13B5
100
AcDbEntity
  8
AM_BOR
 62
     1
370
    25
100
AcDbText
 10
411.0
 20
31.0
 30
0.0
 40
4.0
  1
F
  7
ACDINTS
100
AcDbText
  0
LINE
  5
13BF
330
13B5
100
AcDbEntity
  8
AM_BOR
 62
     1
370
    25
100
AcDbLine
 10
415.0
 20
240.83
 30
0.0
 11
410.0
 21
240.83
 31
0.0
  0
LINE
  5
13C0
330
13B5
100
AcDbEntity
  8
AM_BOR
 62
     1
370
    25
100
AcDbLine
 10
415.0
 20
194.664
 30
0.0
 11
410.0
 21
194.664
 31
0.0
  0
LINE
  5
13C1
330
13B5
100
AcDbEntity
  8
AM_BOR
 62
     1
370
    25
100
AcDbLine
 10
415.0
 20
102.332
 30
0.0
 11
410.0
 21
102.332
 31
0.0
  0
LINE
  5
13C2
330
13B5
100
AcDbEntity
  8
AM_BOR
 62
     1
370
    25
100
AcDbLine
 10
415.0
 20
56.166
 30
0.0
 11
410.0
 21
56.166
 31
0.0
  0
LINE
  5
13C3
330
13B5
100
AcDbEntity
  8
AM_BOR
 62
     1
370
    25
100
AcDbLine
 10
60.0
 20
291.9999999999999
 30
0.0
 11
60.0
 21
287.0
 31
0.0
  0
LINE
  5
13C4
330
13B5
100
AcDbEntity
  8
AM_BOR
 62
     1
370
    25
100
AcDbLine
 10
110.0
 20
291.9999999999999
 30
0.0
 11
110.0
 21
287.0
 31
0.0
  0
LINE
  5
13C5
330
13B5
100
AcDbEntity
  8
AM_BOR
 62
     1
370
    25
100
AcDbLine
 10
160.0
 20
291.9999999999999
 30
0.0
 11
160.0
 21
287.0
 31
0.0
  0
LINE
  5
13C6
330
13B5
100
AcDbEntity
  8
AM_BOR
 62
     1
370
    25
100
AcDbLine
 10
260.0
 20
291.9999999999999
 30
0.0
 11
260.0
 21
287.0
 31
0.0
  0
LINE
  5
13C7
330
13B5
100
AcDbEntity
  8
AM_BOR
 62
     1
370
    25
100
AcDbLine
 10
310.0
 20
291.9999999999999
 30
0.0
 11
310.0
 21
287.0
 31
0.0
  0
LINE
  5
13C8
330
13B5
100
AcDbEntity
  8
AM_BOR
 62
     1
370
    25
100
AcDbLine
 10
360.0
 20
291.9999999999999
 30
0.0
 11
360.0
 21
287.0
 31
0.0
  0
TEXT
  5
13C9
330
13B5
100
AcDbEntity
  8
AM_BOR
 62
     1
370
    25
100
AcDbText
 10
384.0
 20
287.5
 30
0.0
 40
4.0
  1
8
  7
ACDINTS
100
AcDbText
  0
TEXT
  5
13CA
330
13B5
100
AcDbEntity
  8
AM_BOR
 62
     1
370
    25
100
AcDbText
 10
334.0
 20
287.5
 30
0.0
 40
4.0
  1
7
  7
ACDINTS
100
AcDbText
  0
TEXT
  5
13CB
330
13B5
100
AcDbEntity
  8
AM_BOR
 62
     1
370
    25
100
AcDbText
 10
284.0
 20
287.5
 30
0.0
 40
4.0
  1
6
  7
ACDINTS
100
AcDbText
  0
TEXT
  5
13CC
330
13B5
100
AcDbEntity
  8
AM_BOR
 62
     1
370
    25
100
AcDbText
 10
233.5
 20
287.5
 30
0.0
 40
4.0
  1
5
  7
ACDINTS
100
AcDbText
  0
TEXT
  5
13CD
330
13B5
100
AcDbEntity
  8
AM_BOR
 62
     1
370
    25
100
AcDbText
 10
183.5
 20
287.5
 30
0.0
 40
4.0
  1
4
  7
ACDINTS
100
AcDbText
  0
TEXT
  5
13CE
330
13B5
100
AcDbEntity
  8
AM_BOR
 62
     1
370
    25
100
AcDbText
 10
133.5
 20
287.5
 30
0.0
 40
4.0
  1
3
  7
ACDINTS
100
AcDbText
  0
TEXT
  5
13CF
330
13B5
100
AcDbEntity
  8
AM_BOR
 62
     1
370
    25
100
AcDbText
 10
83.49999999999999
 20
287.5
 30
0.0
 40
4.0
  1
2
  7
ACDINTS
100
AcDbText
  0
TEXT
  5
13D0
330
13B5
100
AcDbEntity
  8
AM_BOR
 62
     1
370
    25
100
AcDbText
 10
33.5
 20
287.5
 30
0.0
 40
4.0
  1
1
  7
ACDINTS
100
AcDbText
  0
TEXT
  5
13D1
330
13B5
100
AcDbEntity
  8
AM_BOR
 62
     1
370
    25
100
AcDbText
 10
33.5
 20
5.5
 30
0.0
 40
4.0
  1
1
  7
ACDINTS
100
AcDbText
  0
TEXT
  5
13D2
330
13B5
100
AcDbEntity
  8
AM_BOR
 62
     1
370
    25
100
AcDbText
 10
83.49999999999999
 20
5.5
 30
0.0
 40
4.0
  1
2
  7
ACDINTS
100
AcDbText
  0
TEXT
  5
13D3
330
13B5
100
AcDbEntity
  8
AM_BOR
 62
     1
370
    25
100
AcDbText
 10
133.5
 20
5.5
 30
0.0
 40
4.0
  1
3
  7
ACDINTS
100
AcDbText
  0
TEXT
  5
13D4
330
13B5
100
AcDbEntity
  8
AM_BOR
 62
     1
370
    25
100
AcDbText
 10
183.5
 20
5.5
 30
0.0
 40
4.0
  1
4
  7
ACDINTS
100
AcDbText
  0
TEXT
  5
13D5
330
13B5
100
AcDbEntity
  8
AM_BOR
 62
     1
370
    25
100
AcDbText
 10
6.0
 20
262.0
 30
0.0
 40
4.0
  1
A
  7
ACDINTS
100
AcDbText
  0
TEXT
  5
13D6
330
13B5
100
AcDbEntity
  8
AM_BOR
 62
     1
370
    25
100
AcDbText
 10
6.0
 20
216.0
 30
0.0
 40
4.0
  1
B
  7
ACDINTS
100
AcDbText
  0
TEXT
  5
13D7
330
13B5
100
AcDbEntity
  8
AM_BOR
 62
     1
370
    25
100
AcDbText
 10
6.0
 20
170.0
 30
0.0
 40
4.0
  1
C
  7
ACDINTS
100
AcDbText
  0
TEXT
  5
13D8
330
13B5
100
AcDbEntity
  8
AM_BOR
 62
     1
370
    25
100
AcDbText
 10
6.0
 20
123.0
 30
0.0
 40
4.0
  1
D
  7
ACDINTS
100
AcDbText
  0
TEXT
  5
13D9
330
13B5
100
AcDbEntity
  8
AM_BOR
 62
     1
370
    25
100
AcDbText
 10
6.0
 20
77.0
 30
0.0
 40
4.0
  1
E
  7
ACDINTS
100
AcDbText
  0
TEXT
  5
13DA
330
13B5
100
AcDbEntity
  8
AM_BOR
 62
     1
370
    25
100
AcDbText
 10
6.0
 20
31.0
 30
0.0
 40
4.0
  1
F
  7
ACDINTS
100
AcDbText
  0
LINE
  5
13DB
330
13B5
100
AcDbEntity
  8
AM_BOR
 62
     1
370
    25
100
AcDbLine
 10
160.0
 20
10.0
 30
0.0
 11
160.0
 21
5.0
 31
0.0
  0
LINE
  5
13DC
330
13B5
100
AcDbEntity
  8
AM_BOR
 62
     1
370
    25
100
AcDbLine
 10
110.0
 20
10.0
 30
0.0
 11
110.0
 21
5.0
 31
0.0
  0
LINE
  5
13DD
330
13B5
100
AcDbEntity
  8
AM_BOR
 62
     1
370
    25
100
AcDbLine
 10
60.0
 20
10.0
 30
0.0
 11
60.0
 21
5.0
 31
0.0
  0
LINE
  5
13DE
330
13B5
100
AcDbEntity
  8
AM_BOR
 62
     1
370
    25
100
AcDbLine
 10
10.0
 20
240.83
 30
0.0
 11
5.0
 21
240.83
 31
0.0
  0
LINE
  5
13DF
330
13B5
100
AcDbEntity
  8
AM_BOR
 62
     1
370
    25
100
AcDbLine
 10
10.0
 20
194.664
 30
0.0
 11
5.0
 21
194.664
 31
0.0
  0
LINE
  5
13E0
330
13B5
100
AcDbEntity
  8
AM_BOR
 62
     1
370
    25
100
AcDbLine
 10
10.0
 20
102.332
 30
0.0
 11
5.0
 21
102.332
 31
0.0
  0
LINE
  5
13E1
330
13B5
100
AcDbEntity
  8
AM_BOR
 62
     1
370
    25
100
AcDbLine
 10
10.0
 20
56.166
 30
0.0
 11
5.0
 21
56.166
 31
0.0
  0
LINE
  5
13E2
330
13B5
100
AcDbEntity
  8
AM_BOR
 62
     1
370
    25
100
AcDbLine
 10
410.0
 20
287.0
 30
0.0
 11
409.9999999999999
 21
10.0
 31
0.0
  0
LINE
  5
13E3
330
13B5
100
AcDbEntity
  8
AM_BOR
 62
     1
370
    25
100
AcDbLine
 10
10.00000000000001
 20
287.0
 30
0.0
 11
410.0
 21
287.0
 31
0.0
  0
LINE
  5
13E4
330
13B5
100
AcDbEntity
  8
AM_BOR
 62
     1
370
    25
100
AcDbLine
 10
10.0
 20
10.0
 30
0.0
 11
10.00000000000001
 21
287.0
 31
0.0
  0
LINE
  5
13E5
330
13B5
100
AcDbEntity
  8
0
100
AcDbLine
 10
414.9999999999999
 20
5.0
 30
0.0
 11
4.999999999999943
 21
5.00000000000005
 31
0.0
  0
LINE
  5
13E6
330
13B5
100
AcDbEntity
  8
0
100
AcDbLine
 10
415.0
 20
292.0
 30
0.0
 11
414.9999999999999
 21
5.0
 31
0.0
  0
LINE
  5
13E7
330
13B5
100
AcDbEntity
  8
0
100
AcDbLine
 10
5.000000000000017
 20
292.0
 30
0.0
 11
415.0
 21
292.0
 31
0.0
  0
LINE
  5
13E8
330
13B5
100
AcDbEntity
  8
AM_BOR
 62
     1
370
    25
100
AcDbLine
 10
0.0000000000000182
 20
297.0
 30
0.0
 11
420.0
 21
297.0
 31
0.0
  0
LINE
  5
13E9
330
13B5
100
AcDbEntity
  8
AM_BOR
 62
     1
370
    25
100
AcDbLine
 10
0.0
 20
0.0
 30
0.0
 11
0.0000000000000182
 21
297.0
 31
0.0
  0
LINE
  5
13EA
330
13B5
100
AcDbEntity
  8
AM_BOR
 62
     1
370
    25
100
AcDbLine
 10
125.0
 20
0.0000000000000514
 30
0.0
 11
125.0
 21
5.000000000000035
 31
0.0
  0
TEXT
  5
13EB
330
13B5
100
AcDbEntity
  8
0
 60
     1
100
AcDbText
 10
420.0
 20
297.0
 30
0.0
 40
2.0
  1
!GENTITLE-MAX
  7
ACDINTS
100
AcDbText
  0
TEXT
  5
13EC
330
13B5
100
AcDbEntity
  8
0
 60
     1
100
AcDbText
 10
410.0
 20
287.0
 30
0.0
 40
2.0
  1
!GENTITLE-RU
  7
ACDINTS
100
AcDbText
  0
TEXT
  5
13ED
330
13B5
100
AcDbEntity
  8
0
 60
     1
100
AcDbText
 10
409.9999999999999
 20
10.0
 30
0.0
 40
2.0
  1
!GENTITLE-INSERT
  7
ACDINTS
100
AcDbText
  0
TEXT
  5
13EE
330
13B5
100
AcDbEntity
  8
0
 60
     1
100
AcDbText
 10
10.0
 20
10.00000000000005
 30
0.0
 40
2.0
  1
!GENTITLE-LL
  7
ACDINTS
100
AcDbText
  0
LINE
  5
13EF
330
13B5
100
AcDbEntity
  8
0
100
AcDbLine
 10
5.0
 20
5.0
 30
0.0
 11
5.000000000000017
 21
292.0
 31
0.0
  0
LINE
  5
13F0
330
13B5
100
AcDbEntity
  8
AM_BOR
 62
     1
370
    25
100
AcDbLine
 10
419.9999999999999
 20
0.0
 30
0.0
 11
-0.0000000000000568
 21
0.0000000000000514
 31
0.0
  0
LINE
  5
13F1
330
13B5
100
AcDbEntity
  8
AM_BOR
 62
     2
370
    35
100
AcDbLine
 10
210.0
 20
5.000000000000024
 30
0.0
 11
209.9999999999999
 21
10.00000000000002
 31
0.0
  0
LINE
  5
13F2
330
13B5
100
AcDbEntity
  8
AM_BOR
 62
     2
370
    35
100
AcDbLine
 10
415.0
 20
148.5
 30
0.0
 11
410.0
 21
148.5
 31
0.0
  0
LINE
  5
13F3
330
13B5
100
AcDbEntity
  8
AM_BOR
 62
     2
370
    35
100
AcDbLine
 10
5.000000000000008
 20
148.5
 30
0.0
 11
10.00000000000001
 21
148.5
 31
0.0
  0
LINE
  5
13F4
330
13B5
100
AcDbEntity
  8
AM_BOR
 62
     2
370
    35
100
AcDbLine
 10
210.0
 20
292.0
 30
0.0
 11
210.0
 21
287.0
 31
0.0
  0
TEXT
  5
13F5
330
13B5
100
AcDbEntity
  8
AM_BOR
 62
     1
370
    25
100
AcDbText
 10
233.4999999999999
 20
5.499999999999943
 30
0.0
 40
4.0
  1
5
  7
ACDINTS
100
AcDbText
  0
TEXT
  5
13F6
330
13B5
100
AcDbEntity
  8
AM_BOR
 62
     1
370
    25
100
AcDbText
 10
283.9999999999999
 20
5.499999999999943
 30
0.0
 40
4.0
  1
6
  7
ACDINTS
100
AcDbText
  0
LINE
  5
13F7
330
13B5
100
AcDbEntity
  8
AM_BOR
 62
     1
370
    25
100
AcDbLine
 10
259.9999999999999
 20
9.999999999999943
 30
0.0
 11
259.9999999999999
 21
4.999999999999943
 31
0.0
  0
TEXT
  5
13F8
330
13B5
100
AcDbEntity
  8
AM_BOR
 62
     1
370
    25
100
AcDbText
 10
333.9999999999999
 20
5.499999999999943
 30
0.0
 40
4.0
  1
7
  7
ACDINTS
100
AcDbText
  0
LINE
  5
13F9
330
13B5
100
AcDbEntity
  8
AM_BOR
 62
     1
370
    25
100
AcDbLine
 10
359.9999999999999
 20
9.999999999999943
 30
0.0
 11
359.9999999999999
 21
4.999999999999943
 31
0.0
  0
LINE
  5
13FA
330
13B5
100
AcDbEntity
  8
AM_BOR
 62
     1
370
    25
100
AcDbLine
 10
309.9999999999999
 20
9.999999999999943
 30
0.0
 11
309.9999999999999
 21
4.999999999999943
 31
0.0
  0
TEXT
  5
13FB
330
13B5
100
AcDbEntity
  8
AM_BOR
 62
     1
370
    25
100
AcDbText
 10
383.9999999999999
 20
5.499999999999943
 30
0.0
 40
4.0
  1
8
  7
ACDINTS
100
AcDbText
  0
ENDBLK
  5
13FD
330
13B5
100
AcDbEntity
  8
0
100
AcDbBlockEnd
  0
BLOCK
  5
1E77
330
1E6D
100
AcDbEntity
  8
0
100
AcDbBlockBegin
  2
*D3
 70
     1
 10
0.0
 20
0.0
 30
0.0
  3
*D3
  1

  0
LINE
  5
69E3
330
1E6D
100
AcDbEntity
  8
AM_5
100
AcDbLine
 10
324.9106791656552
 20
314.5817799410738
 30
0.0
 11
35.91067916565523
 21
314.5817799410739
 31
0.0
  0
LINE
  5
69E4
330
1E6D
100
AcDbEntity
  8
AM_5
100
AcDbLine
 10
151.9106791656552
 20
174.5817799410738
 30
0.0
 11
35.91067916565522
 21
174.5817799410738
 31
0.0
  0
LINE
  5
69E5
330
1E6D
100
AcDbEntity
  8
AM_5
100
AcDbLine
 10
37.91067916565525
 20
309.5817799410739
 30
0.0
 11
37.91067916565522
 21
179.5817799410738
 31
0.0
  0
SOLID
  5
69E6
330
1E6D
100
AcDbEntity
  8
AM_5
100
AcDbTrace
 10
37.07734583232191
 20
309.5817799410739
 30
0.0
 11
38.74401249898858
 21
309.5817799410739
 31
0.0
 12
37.91067916565525
 22
314.5817799410739
 32
0.0
 13
37.91067916565525
 23
314.5817799410739
 33
0.0
  0
SOLID
  5
69E7
330
1E6D
100
AcDbEntity
  8
AM_5
100
AcDbTrace
 10
37.07734583232188
 20
179.5817799410738
 30
0.0
 11
38.74401249898856
 21
179.5817799410738
 31
0.0
 12
37.91067916565521
 22
174.5817799410738
 32
0.0
 13
37.91067916565521
 23
174.5817799410738
 33
0.0
  0
MTEXT
  5
69E8
330
1E6D
100
AcDbEntity
  8
AM_5
 62
     2
100
AcDbMText
 10
31.41067916565519
 20
244.5817799410739
 30
0.0
 40
7.0
 41
0.0
 71
     5
 72
     1
  1
140
 11
0.0000000000000001
 21
1.0
 31
0.0
 73
     1
 44
1.0
1001
ACAD
1000
MTEXTBEGIN
1070
    73
1070
     1
1070
    44
1040
1.0
1070
    74
1070
     0
1000
MTEXTEND
  0
POINT
  5
69E9
330
1E6D
100
AcDbEntity
  8
Defpoints
 62
     0
100
AcDbPoint
 10
326.9106791656552
 20
314.5817799410738
 30
0.0
  0
POINT
  5
69EA
330
1E6D
100
AcDbEntity
  8
Defpoints
 62
     0
100
AcDbPoint
 10
153.9106791656552
 20
174.5817799410738
 30
0.0
  0
POINT
  5
69EB
330
1E6D
100
AcDbEntity
  8
Defpoints
 62
     0
100
AcDbPoint
 10
37.91067916565521
 20
174.5817799410738
 30
0.0
  0
ENDBLK
  5
1E78
330
1E6D
100
AcDbEntity
  8
0
100
AcDbBlockEnd
  0
BLOCK
  5
1E83
330
1E79
100
AcDbEntity
  8
0
100
AcDbBlockBegin
  2
*D4
 70
     1
 10
0.0
 20
0.0
 30
0.0
  3
*D4
  1

  0
LINE
  5
69DA
330
1E79
100
AcDbEntity
  8
AM_5
100
AcDbLine
 10
324.9106791656552
 20
314.5817799410738
 30
0.0
 11
55.91067916565522
 21
314.5817799410739
 31
0.0
  0
LINE
  5
69DB
330
1E79
100
AcDbEntity
  8
AM_5
100
AcDbLine
 10
241.9106791656552
 20
244.5817799410738
 30
0.0
 11
55.91067916565521
 21
244.5817799410739
 31
0.0
  0
LINE
  5
69DC
330
1E79
100
AcDbEntity
  8
AM_5
100
AcDbLine
 10
57.91067916565522
 20
309.5817799410739
 30
0.0
 11
57.91067916565521
 21
249.5817799410739
 31
0.0
  0
SOLID
  5
69DD
330
1E79
100
AcDbEntity
  8
AM_5
100
AcDbTrace
 10
57.07734583232189
 20
309.5817799410739
 30
0.0
 11
58.74401249898856
 21
309.5817799410739
 31
0.0
 12
57.91067916565522
 22
314.5817799410739
 32
0.0
 13
57.91067916565522
 23
314.5817799410739
 33
0.0
  0
SOLID
  5
69DE
330
1E79
100
AcDbEntity
  8
AM_5
100
AcDbTrace
 10
57.07734583232188
 20
249.5817799410739
 30
0.0
 11
58.74401249898855
 21
249.5817799410739
 31
0.0
 12
57.91067916565521
 22
244.5817799410739
 32
0.0
 13
57.91067916565521
 23
244.5817799410739
 33
0.0
  0
MTEXT
  5
69DF
330
1E79
100
AcDbEntity
  8
AM_5
 62
     2
100
AcDbMText
 10
51.41067916565517
 20
279.5817799410739
 30
0.0
 40
7.0
 41
0.0
 71
     5
 72
     1
  1
70
 11
0.0000000000000001
 21
1.0
 31
0.0
 73
     1
 44
1.0
1001
ACAD
1000
MTEXTBEGIN
1070
    73
1070
     1
1070
    44
1040
1.0
1070
    74
1070
     0
1000
MTEXTEND
  0
POINT
  5
69E0
330
1E79
100
AcDbEntity
  8
Defpoints
 62
     0
100
AcDbPoint
 10
326.9106791656552
 20
314.5817799410738
 30
0.0
  0
POINT
  5
69E1
330
1E79
100
AcDbEntity
  8
Defpoints
 62
     0
100
AcDbPoint
 10
243.9106791656552
 20
244.5817799410738
 30
0.0
  0
POINT
  5
69E2
330
1E79
100
AcDbEntity
  8
Defpoints
 62
     0
100
AcDbPoint
 10
57.91067916565521
 20
244.5817799410739
 30
0.0
  0
ENDBLK
  5
1E84
330
1E79
100
AcDbEntity
  8
0
100
AcDbBlockEnd
  0
BLOCK
  5
1E8F
330
1E85
100
AcDbEntity
  8
0
100
AcDbBlockBegin
  2
*D5
 70
     1
 10
0.0
 20
0.0
 30
0.0
  3
*D5
  1

  0
LINE
  5
69D1
330
1E85
100
AcDbEntity
  8
AM_5
100
AcDbLine
 10
324.9106791656552
 20
314.5817799410738
 30
0.0
 11
75.91067916565522
 21
314.5817799410739
 31
0.0
  0
LINE
  5
69D2
330
1E85
100
AcDbEntity
  8
AM_5
100
AcDbLine
 10
221.9106791656555
 20
265.5817799410738
 30
0.0
 11
75.91067916565521
 21
265.5817799410739
 31
0.0
  0
LINE
  5
69D3
330
1E85
100
AcDbEntity
  8
AM_5
100
AcDbLine
 10
77.91067916565522
 20
309.5817799410739
 30
0.0
 11
77.91067916565521
 21
270.5817799410739
 31
0.0
  0
SOLID
  5
69D4
330
1E85
100
AcDbEntity
  8
AM_5
100
AcDbTrace
 10
77.07734583232189
 20
309.5817799410739
 30
0.0
 11
78.74401249898856
 21
309.5817799410739
 31
0.0
 12
77.91067916565522
 22
314.5817799410739
 32
0.0
 13
77.91067916565522
 23
314.5817799410739
 33
0.0
  0
SOLID
  5
69D5
330
1E85
100
AcDbEntity
  8
AM_5
100
AcDbTrace
 10
77.07734583232188
 20
270.5817799410739
 30
0.0
 11
78.74401249898854
 21
270.5817799410739
 31
0.0
 12
77.91067916565521
 22
265.5817799410739
 32
0.0
 13
77.91067916565521
 23
265.5817799410739
 33
0.0
  0
MTEXT
  5
69D6
330
1E85
100
AcDbEntity
  8
AM_5
 62
     2
100
AcDbMText
 10
71.41067916565517
 20
290.0817799410739
 30
0.0
 40
7.0
 41
0.0
 71
     5
 72
     1
  1
49
 11
0.0000000000000001
 21
1.0
 31
0.0
 73
     1
 44
1.0
1001
ACAD
1000
MTEXTBEGIN
1070
    73
1070
     1
1070
    44
1040
1.0
1070
    74
1070
     0
1000
MTEXTEND
  0
POINT
  5
69D7
330
1E85
100
AcDbEntity
  8
Defpoints
 62
     0
100
AcDbPoint
 10
326.9106791656552
 20
314.5817799410738
 30
0.0
  0
POINT
  5
69D8
330
1E85
100
AcDbEntity
  8
Defpoints
 62
     0
100
AcDbPoint
 10
223.9106791656555
 20
265.5817799410738
 30
0.0
  0
POINT
  5
69D9
330
1E85
100
AcDbEntity
  8
Defpoints
 62
     0
100
AcDbPoint
 10
77.91067916565521
 20
265.5817799410739
 30
0.0
  0
ENDBLK
  5
1E90
330
1E85
100
AcDbEntity
  8
0
100
AcDbBlockEnd
  0
BLOCK
  5
1E9B
330
1E91
100
AcDbEntity
  8
0
100
AcDbBlockBegin
  2
*D6
 70
     1
 10
0.0
 20
0.0
 30
0.0
  3
*D6
  1

  0
LINE
  5
6A10
330
1E91
100
AcDbEntity
  8
AM_5
100
AcDbLine
 10
291.9106791656552
 20
172.5817799410738
 30
0.0
 11
291.9106791656552
 21
108.5817799410739
 31
0.0
  0
LINE
  5
6A11
330
1E91
100
AcDbEntity
  8
AM_5
100
AcDbLine
 10
351.9106791656552
 20
132.5817799410738
 30
0.0
 11
351.9106791656552
 21
108.5817799410739
 31
0.0
  0
LINE
  5
6A12
330
1E91
100
AcDbEntity
  8
AM_5
100
AcDbLine
 10
296.9106791656552
 20
110.5817799410739
 30
0.0
 11
346.9106791656552
 21
110.5817799410739
 31
0.0
  0
SOLID
  5
6A13
330
1E91
100
AcDbEntity
  8
AM_5
100
AcDbTrace
 10
296.9106791656552
 20
111.4151132744072
 30
0.0
 11
296.9106791656552
 21
109.7484466077406
 31
0.0
 12
291.9106791656552
 22
110.5817799410739
 32
0.0
 13
291.9106791656552
 23
110.5817799410739
 33
0.0
  0
SOLID
  5
6A14
330
1E91
100
AcDbEntity
  8
AM_5
100
AcDbTrace
 10
346.9106791656552
 20
111.4151132744072
 30
0.0
 11
346.9106791656552
 21
109.7484466077406
 31
0.0
 12
351.9106791656552
 22
110.5817799410739
 32
0.0
 13
351.9106791656552
 23
110.5817799410739
 33
0.0
  0
MTEXT
  5
6A15
330
1E91
100
AcDbEntity
  8
AM_5
 62
     2
100
AcDbMText
 10
321.9106791656552
 20
117.0817799410739
 30
0.0
 40
7.0
 41
0.0
 71
     5
 72
     1
  1
60
 73
     1
 44
1.0
1001
ACAD
1000
MTEXTBEGIN
1070
    73
1070
     1
1070
    44
1040
1.0
1070
    74
1070
     0
1000
MTEXTEND
  0
POINT
  5
6A16
330
1E91
100
AcDbEntity
  8
Defpoints
 62
     0
100
AcDbPoint
 10
291.9106791656552
 20
174.5817799410738
 30
0.0
  0
POINT
  5
6A17
330
1E91
100
AcDbEntity
  8
Defpoints
 62
     0
100
AcDbPoint
 10
351.9106791656552
 20
134.5817799410738
 30
0.0
  0
POINT
  5
6A18
330
1E91
100
AcDbEntity
  8
Defpoints
 62
     0
100
AcDbPoint
 10
351.9106791656552
 20
110.5817799410739
 30
0.0
  0
ENDBLK
  5
1E9C
330
1E91
100
AcDbEntity
  8
0
100
AcDbBlockEnd
  0
BLOCK
  5
1EA7
330
1E9D
100
AcDbEntity
  8
0
100
AcDbBlockBegin
  2
*D7
 70
     1
 10
0.0
 20
0.0
 30
0.0
  3
*D7
  1

  0
LINE
  5
6A07
330
1E9D
100
AcDbEntity
  8
AM_5
100
AcDbLine
 10
101.9106791656552
 20
132.5817799410738
 30
0.0
 11
101.9106791656552
 21
28.58177994107439
 31
0.0
  0
LINE
  5
6A08
330
1E9D
100
AcDbEntity
  8
AM_5
100
AcDbLine
 10
601.9106791656552
 20
132.5817799410738
 30
0.0
 11
601.9106791656552
 21
28.58177994107439
 31
0.0
  0
LINE
  5
6A09
330
1E9D
100
AcDbEntity
  8
AM_5
100
AcDbLine
 10
106.9106791656552
 20
30.58177994107439
 30
0.0
 11
596.9106791656551
 21
30.58177994107439
 31
0.0
  0
SOLID
  5
6A0A
330
1E9D
100
AcDbEntity
  8
AM_5
100
AcDbTrace
 10
106.9106791656552
 20
31.41511327440772
 30
0.0
 11
106.9106791656552
 21
29.74844660774106
 31
0.0
 12
101.9106791656552
 22
30.58177994107439
 32
0.0
 13
101.9106791656552
 23
30.58177994107439
 33
0.0
  0
SOLID
  5
6A0B
330
1E9D
100
AcDbEntity
  8
AM_5
100
AcDbTrace
 10
596.9106791656551
 20
31.41511327440772
 30
0.0
 11
596.9106791656551
 21
29.74844660774106
 31
0.0
 12
601.9106791656552
 22
30.58177994107439
 32
0.0
 13
601.9106791656552
 23
30.58177994107439
 33
0.0
  0
MTEXT
  5
6A0C
330
1E9D
100
AcDbEntity
  8
AM_5
 62
     2
100
AcDbMText
 10
351.9106791656552
 20
37.08177994107439
 30
0.0
 40
7.0
 41
0.0
 71
     5
 72
     1
  1
500
 73
     1
 44
1.0
1001
ACAD
1000
MTEXTBEGIN
1070
    73
1070
     1
1070
    44
1040
1.0
1070
    74
1070
     0
1000
MTEXTEND
  0
POINT
  5
6A0D
330
1E9D
100
AcDbEntity
  8
Defpoints
 62
     0
100
AcDbPoint
 10
101.9106791656552
 20
134.5817799410738
 30
0.0
  0
POINT
  5
6A0E
330
1E9D
100
AcDbEntity
  8
Defpoints
 62
     0
100
AcDbPoint
 10
601.9106791656552
 20
134.5817799410738
 30
0.0
  0
POINT
  5
6A0F
330
1E9D
100
AcDbEntity
  8
Defpoints
 62
     0
100
AcDbPoint
 10
601.9106791656552
 20
30.58177994107439
 30
0.0
  0
ENDBLK
  5
1EA8
330
1E9D
100
AcDbEntity
  8
0
100
AcDbBlockEnd
  0
BLOCK
  5
1EB3
330
1EA9
100
AcDbEntity
  8
0
100
AcDbBlockBegin
  2
*D8
 70
     1
 10
0.0
 20
0.0
 30
0.0
  3
*D8
  1

  0
LINE
  5
69FE
330
1EA9
100
AcDbEntity
  8
AM_5
100
AcDbLine
 10
351.9106791656552
 20
129.5817799410738
 30
0.0
 11
351.9106791656552
 21
48.58177994107347
 31
0.0
  0
LINE
  5
69FF
330
1EA9
100
AcDbEntity
  8
AM_5
100
AcDbLine
 10
161.9106791656552
 20
164.5817799410738
 30
0.0
 11
161.9106791656552
 21
48.58177994107347
 31
0.0
  0
LINE
  5
6A00
330
1EA9
100
AcDbEntity
  8
AM_5
100
AcDbLine
 10
346.9106791656552
 20
50.58177994107348
 30
0.0
 11
166.9106791656552
 21
50.58177994107348
 31
0.0
  0
SOLID
  5
6A01
330
1EA9
100
AcDbEntity
  8
AM_5
100
AcDbTrace
 10
346.9106791656552
 20
51.41511327440682
 30
0.0
 11
346.9106791656552
 21
49.74844660774014
 31
0.0
 12
351.9106791656552
 22
50.58177994107348
 32
0.0
 13
351.9106791656552
 23
50.58177994107348
 33
0.0
  0
SOLID
  5
6A02
330
1EA9
100
AcDbEntity
  8
AM_5
100
AcDbTrace
 10
166.9106791656552
 20
51.41511327440682
 30
0.0
 11
166.9106791656552
 21
49.74844660774014
 31
0.0
 12
161.9106791656552
 22
50.58177994107348
 32
0.0
 13
161.9106791656552
 23
50.58177994107348
 33
0.0
  0
MTEXT
  5
6A03
330
1EA9
100
AcDbEntity
  8
AM_5
 62
     2
100
AcDbMText
 10
256.9106791656552
 20
57.08177994107348
 30
0.0
 40
7.0
 41
0.0
 71
     5
 72
     1
  1
190
 73
     1
 44
1.0
1001
ACAD
1000
MTEXTBEGIN
1070
    73
1070
     1
1070
    44
1040
1.0
1070
    74
1070
     0
1000
MTEXTEND
  0
POINT
  5
6A04
330
1EA9
100
AcDbEntity
  8
Defpoints
 62
     0
100
AcDbPoint
 10
351.9106791656552
 20
131.5817799410738
 30
0.0
  0
POINT
  5
6A05
330
1EA9
100
AcDbEntity
  8
Defpoints
 62
     0
100
AcDbPoint
 10
161.9106791656552
 20
166.5817799410738
 30
0.0
  0
POINT
  5
6A06
330
1EA9
100
AcDbEntity
  8
Defpoints
 62
     0
100
AcDbPoint
 10
161.9106791656552
 20
50.58177994107348
 30
0.0
  0
ENDBLK
  5
1EB4
330
1EA9
100
AcDbEntity
  8
0
100
AcDbBlockEnd
  0
BLOCK
  5
1EBF
330
1EB5
100
AcDbEntity
  8
0
100
AcDbBlockBegin
  2
*D9
 70
     1
 10
0.0
 20
0.0
 30
0.0
  3
*D9
  1

  0
LINE
  5
69F5
330
1EB5
100
AcDbEntity
  8
AM_5
100
AcDbLine
 10
351.9106791656552
 20
132.5817799410738
 30
0.0
 11
351.9106791656552
 21
68.58177994107371
 31
0.0
  0
LINE
  5
69F6
330
1EB5
100
AcDbEntity
  8
AM_5
100
AcDbLine
 10
231.9106791656555
 20
255.5817799410738
 30
0.0
 11
231.9106791656555
 21
68.58177994107371
 31
0.0
  0
LINE
  5
69F7
330
1EB5
100
AcDbEntity
  8
AM_5
100
AcDbLine
 10
346.9106791656552
 20
70.58177994107371
 30
0.0
 11
236.9106791656554
 21
70.58177994107371
 31
0.0
  0
SOLID
  5
69F8
330
1EB5
100
AcDbEntity
  8
AM_5
100
AcDbTrace
 10
346.9106791656552
 20
71.41511327440703
 30
0.0
 11
346.9106791656552
 21
69.74844660774038
 31
0.0
 12
351.9106791656552
 22
70.58177994107371
 32
0.0
 13
351.9106791656552
 23
70.58177994107371
 33
0.0
  0
SOLID
  5
69F9
330
1EB5
100
AcDbEntity
  8
AM_5
100
AcDbTrace
 10
236.9106791656554
 20
71.41511327440703
 30
0.0
 11
236.9106791656554
 21
69.74844660774038
 31
0.0
 12
231.9106791656555
 22
70.58177994107371
 32
0.0
 13
231.9106791656555
 23
70.58177994107371
 33
0.0
  0
MTEXT
  5
69FA
330
1EB5
100
AcDbEntity
  8
AM_5
 62
     2
100
AcDbMText
 10
291.9106791656553
 20
77.08246891745166
 30
0.0
 40
7.0
 41
0.0
 71
     5
 72
     1
  1
120
 73
     1
 44
1.0
1001
ACAD
1000
MTEXTBEGIN
1070
    73
1070
     1
1070
    44
1040
1.0
1070
    74
1070
     0
1000
MTEXTEND
  0
POINT
  5
69FB
330
1EB5
100
AcDbEntity
  8
Defpoints
 62
     0
100
AcDbPoint
 10
351.9106791656552
 20
134.5817799410738
 30
0.0
  0
POINT
  5
69FC
330
1EB5
100
AcDbEntity
  8
Defpoints
 62
     0
100
AcDbPoint
 10
231.9106791656555
 20
257.5817799410738
 30
0.0
  0
POINT
  5
69FD
330
1EB5
100
AcDbEntity
  8
Defpoints
 62
     0
100
AcDbPoint
 10
231.9106791656555
 20
70.58177994107371
 30
0.0
  0
ENDBLK
  5
1EC0
330
1EB5
100
AcDbEntity
  8
0
100
AcDbBlockEnd
  0
BLOCK
  5
1ECB
330
1EC1
100
AcDbEntity
  8
0
100
AcDbBlockBegin
  2
*D10
 70
     1
 10
0.0
 20
0.0
 30
0.0
  3
*D10
  1

  0
LINE
  5
69EC
330
1EC1
100
AcDbEntity
  8
AM_5
100
AcDbLine
 10
351.9106791656552
 20
129.5817799410738
 30
0.0
 11
351.9106791656552
 21
88.5817799410737
 31
0.0
  0
LINE
  5
69ED
330
1EC1
100
AcDbEntity
  8
AM_5
100
AcDbLine
 10
251.9106791656552
 20
234.5817799410738
 30
0.0
 11
251.9106791656552
 21
88.5817799410737
 31
0.0
  0
LINE
  5
69EE
330
1EC1
100
AcDbEntity
  8
AM_5
100
AcDbLine
 10
346.9106791656552
 20
90.58177994107371
 30
0.0
 11
256.9106791656552
 21
90.58177994107371
 31
0.0
  0
SOLID
  5
69EF
330
1EC1
100
AcDbEntity
  8
AM_5
100
AcDbTrace
 10
346.9106791656552
 20
91.41511327440703
 30
0.0
 11
346.9106791656552
 21
89.74844660774037
 31
0.0
 12
351.9106791656552
 22
90.58177994107371
 32
0.0
 13
351.9106791656552
 23
90.58177994107371
 33
0.0
  0
SOLID
  5
69F0
330
1EC1
100
AcDbEntity
  8
AM_5
100
AcDbTrace
 10
256.9106791656552
 20
91.41511327440703
 30
0.0
 11
256.9106791656552
 21
89.74844660774037
 31
0.0
 12
251.9106791656552
 22
90.58177994107371
 32
0.0
 13
251.9106791656552
 23
90.58177994107371
 33
0.0
  0
MTEXT
  5
69F1
330
1EC1
100
AcDbEntity
  8
AM_5
 62
     2
100
AcDbMText
 10
301.9106791656552
 20
97.08177994107371
 30
0.0
 40
7.0
 41
0.0
 71
     5
 72
     1
  1
100
 73
     1
 44
1.0
1001
ACAD
1000
MTEXTBEGIN
1070
    73
1070
     1
1070
    44
1040
1.0
1070
    74
1070
     0
1000
MTEXTEND
  0
POINT
  5
69F2
330
1EC1
100
AcDbEntity
  8
Defpoints
 62
     0
100
AcDbPoint
 10
351.9106791656552
 20
131.5817799410738
 30
0.0
  0
POINT
  5
69F3
330
1EC1
100
AcDbEntity
  8
Defpoints
 62
     0
100
AcDbPoint
 10
251.9106791656552
 20
236.5817799410738
 30
0.0
  0
POINT
  5
69F4
330
1EC1
100
AcDbEntity
  8
Defpoints
 62
     0
100
AcDbPoint
 10
251.9106791656552
 20
90.58177994107371
 30
0.0
  0
ENDBLK
  5
1ECC
330
1EC1
100
AcDbEntity
  8
0
100
AcDbBlockEnd
  0
BLOCK
  5
1ED4
330
1ECD
100
AcDbEntity
  8
0
100
AcDbBlockBegin
  2
*D11
 70
     1
 10
0.0
 20
0.0
 30
0.0
  3
*D11
  1

  0
LINE
  5
6A1F
330
1ECD
100
AcDbEntity
  8
AM_5
100
AcDbLine
 10
410.8058166781104
 20
216.6597155525311
 30
0.0
 11
415.8731028873892
 21
223.5401439298096
 31
0.0
  0
LINE
  5
6A20
330
1ECD
100
AcDbEntity
  8
AM_5
100
AcDbLine
 10
415.8731028873892
 20
223.5401439298096
 30
0.0
 11
430.7786146984127
 21
223.5401439298096
 31
0.0
  0
SOLID
  5
6A21
330
1ECD
100
AcDbEntity
  8
AM_5
100
AcDbTrace
 10
410.1348202552515
 20
217.1538898587786
 30
0.0
 11
411.4768131009691
 21
216.1655412462835
 31
0.0
 12
407.8407708406252
 22
212.6337370153787
 32
0.0
 13
407.8407708406252
 23
212.6337370153787
 33
0.0
  0
MTEXT
  5
6A22
330
1ECD
100
AcDbEntity
  8
AM_5
 62
     2
100
AcDbMText
 10
424.825858792901
 20
230.0401439298095
 30
0.0
 40
7.0
 41
0.0
 71
     5
 72
     1
  1
R10
 73
     1
 44
1.0
1001
ACAD
1000
MTEXTBEGIN
1070
    73
1070
     1
1070
    44
1040
1.0
1070
    74
1070
     0
1000
MTEXTEND
  0
POINT
  5
6A23
330
1ECD
100
AcDbEntity
  8
Defpoints
 62
     0
100
AcDbPoint
 10
407.8407708406252
 20
212.6337370153787
 30
0.0
  0
POINT
  5
6A24
330
1ECD
100
AcDbEntity
  8
Defpoints
 62
     0
100
AcDbPoint
 10
401.9106791656549
 20
204.5817799410739
 30
0.0
  0
ENDBLK
  5
1ED5
330
1ECD
100
AcDbEntity
  8
0
100
AcDbBlockEnd
  0
BLOCK
  5
1EE0
330
1ED6
100
AcDbEntity
  8
0
100
AcDbBlockBegin
  2
*D12
 70
     1
 10
0.0
 20
0.0
 30
0.0
  3
*D12
  1

  0
LINE
  5
6A25
330
1ED6
100
AcDbEntity
  8
AM_5
100
AcDbLine
 10
403.9106791656552
 20
214.5817799410738
 30
0.0
 11
437.9106791656552
 21
214.5817799410738
 31
0.0
  0
LINE
  5
6A26
330
1ED6
100
AcDbEntity
  8
AM_5
100
AcDbLine
 10
403.9106791656552
 20
164.5817799410738
 30
0.0
 11
437.9106791656552
 21
164.5817799410738
 31
0.0
  0
LINE
  5
6A27
330
1ED6
100
AcDbEntity
  8
AM_5
100
AcDbLine
 10
435.9106791656552
 20
209.5817799410738
 30
0.0
 11
435.9106791656552
 21
169.5817799410738
 31
0.0
  0
SOLID
  5
6A28
330
1ED6
100
AcDbEntity
  8
AM_5
100
AcDbTrace
 10
435.0773458323218
 20
209.5817799410738
 30
0.0
 11
436.7440124989885
 21
209.5817799410738
 31
0.0
 12
435.9106791656552
 22
214.5817799410738
 32
0.0
 13
435.9106791656552
 23
214.5817799410738
 33
0.0
  0
SOLID
  5
6A29
330
1ED6
100
AcDbEntity
  8
AM_5
100
AcDbTrace
 10
435.0773458323218
 20
169.5817799410738
 30
0.0
 11
436.7440124989885
 21
169.5817799410738
 31
0.0
 12
435.9106791656552
 22
164.5817799410738
 32
0.0
 13
435.9106791656552
 23
164.5817799410738
 33
0.0
  0
MTEXT
  5
6A2A
330
1ED6
100
AcDbEntity
  8
AM_5
 62
     2
100
AcDbMText
 10
429.4106791656552
 20
189.5817799410739
 30
0.0
 40
7.0
 41
0.0
 71
     5
 72
     1
  1
50
 11
0.0000000000000001
 21
1.0
 31
0.0
 73
     1
 44
1.0
1001
ACAD
1000
MTEXTBEGIN
1070
    73
1070
     1
1070
    44
1040
1.0
1070
    74
1070
     0
1000
MTEXTEND
  0
POINT
  5
6A2B
330
1ED6
100
AcDbEntity
  8
Defpoints
 62
     0
100
AcDbPoint
 10
401.9106791656552
 20
214.5817799410738
 30
0.0
  0
POINT
  5
6A2C
330
1ED6
100
AcDbEntity
  8
Defpoints
 62
     0
100
AcDbPoint
 10
401.9106791656552
 20
164.5817799410738
 30
0.0
  0
POINT
  5
6A2D
330
1ED6
100
AcDbEntity
  8
Defpoints
 62
     0
100
AcDbPoint
 10
435.9106791656552
 20
164.5817799410738
 30
0.0
  0
ENDBLK
  5
1EE1
330
1ED6
100
AcDbEntity
  8
0
100
AcDbBlockEnd
  0
BLOCK
  5
1EE9
330
1EE2
100
AcDbEntity
  8
0
100
AcDbBlockBegin
  2
*D13
 70
     1
 10
0.0
 20
0.0
 30
0.0
  3
*D13
  1

  0
LINE
  5
6A19
330
1EE2
100
AcDbEntity
  8
AM_5
100
AcDbLine
 10
477.8198276948387
 20
273.6491192583482
 30
0.0
 11
482.6109857493368
 21
280.1901458643707
 31
0.0
  0
LINE
  5
6A1A
330
1EE2
100
AcDbEntity
  8
AM_5
100
AcDbLine
 10
482.6109857493368
 20
280.1901458643707
 30
0.0
 11
498.2164975603605
 21
280.1901458643707
 31
0.0
  0
SOLID
  5
6A1B
330
1EE2
100
AcDbEntity
  8
AM_5
100
AcDbTrace
 10
477.1475494183992
 20
274.141548302447
 30
0.0
 11
478.4921059712782
 21
273.1566902142497
 31
0.0
 12
474.8652534302469
 22
269.615449599711
 32
0.0
 13
474.8652534302469
 23
269.615449599711
 33
0.0
  0
MTEXT
  5
6A1C
330
1EE2
100
AcDbEntity
  8
AM_5
 62
     2
100
AcDbMText
 10
491.9137416548486
 20
286.6901458643709
 30
0.0
 40
7.0
 41
0.0
 71
     5
 72
     1
  1
\U+220510
 73
     1
 44
1.0
1001
ACAD
1000
MTEXTBEGIN
1070
    73
1070
     1
1070
    44
1040
1.0
1070
    74
1070
     0
1000
MTEXTEND
  0
POINT
  5
6A1D
330
1EE2
100
AcDbEntity
  8
Defpoints
 62
     0
100
AcDbPoint
 10
474.8652534302469
 20
269.615449599711
 30
0.0
  0
POINT
  5
6A1E
330
1EE2
100
AcDbEntity
  8
Defpoints
 62
     0
100
AcDbPoint
 10
468.9561049010626
 20
261.5481102824356
 30
0.0
  0
ENDBLK
  5
1EEA
330
1EE2
100
AcDbEntity
  8
0
100
AcDbBlockEnd
  0
BLOCK
  5
1F0E
330
1F04
100
AcDbEntity
  8
0
100
AcDbBlockBegin
  2
*D14
 70
     1
 10
0.0
 20
0.0
 30
0.0
  3
*D14
  1

  0
LINE
  5
6A2E
330
1F04
100
AcDbEntity
  8
AM_5
100
AcDbLine
 10
603.9106791656552
 20
134.5817799410738
 30
0.0
 11
647.9106791656553
 21
134.5817799410738
 31
0.0
  0
LINE
  5
6A2F
330
1F04
100
AcDbEntity
  8
AM_5
100
AcDbLine
 10
603.9106791656552
 20
364.5817799410738
 30
0.0
 11
647.9106791656554
 21
364.5817799410738
 31
0.0
  0
LINE
  5
6A30
330
1F04
100
AcDbEntity
  8
AM_5
100
AcDbLine
 10
645.9106791656552
 20
139.5817799410738
 30
0.0
 11
645.9106791656554
 21
359.5817799410738
 31
0.0
  0
SOLID
  5
6A31
330
1F04
100
AcDbEntity
  8
AM_5
100
AcDbTrace
 10
645.0773458323219
 20
139.5817799410738
 30
0.0
 11
646.7440124989886
 21
139.5817799410738
 31
0.0
 12
645.9106791656552
 22
134.5817799410738
 32
0.0
 13
645.9106791656552
 23
134.5817799410738
 33
0.0
  0
SOLID
  5
6A32
330
1F04
100
AcDbEntity
  8
AM_5
100
AcDbTrace
 10
645.0773458323221
 20
359.5817799410738
 30
0.0
 11
646.7440124989888
 21
359.5817799410738
 31
0.0
 12
645.9106791656554
 22
364.5817799410738
 32
0.0
 13
645.9106791656554
 23
364.5817799410738
 33
0.0
  0
MTEXT
  5
6A33
330
1F04
100
AcDbEntity
  8
AM_5
 62
     2
100
AcDbMText
 10
639.4099901892773
 20
249.5817799410739
 30
0.0
 40
7.0
 41
0.0
 71
     5
 72
     1
  1
230
 11
0.0000000000000001
 21
1.0
 31
0.0
 73
     1
 44
1.0
1001
ACAD
1000
MTEXTBEGIN
1070
    73
1070
     1
1070
    44
1040
1.0
1070
    74
1070
     0
1000
MTEXTEND
  0
POINT
  5
6A34
330
1F04
100
AcDbEntity
  8
Defpoints
 62
     0
100
AcDbPoint
 10
601.9106791656552
 20
134.5817799410738
 30
0.0
  0
POINT
  5
6A35
330
1F04
100
AcDbEntity
  8
Defpoints
 62
     0
100
AcDbPoint
 10
601.9106791656552
 20
364.5817799410738
 30
0.0
  0
POINT
  5
6A36
330
1F04
100
AcDbEntity
  8
Defpoints
 62
     0
100
AcDbPoint
 10
645.9106791656554
 20
364.5817799410738
 30
0.0
  0
ENDBLK
  5
1F0F
330
1F04
100
AcDbEntity
  8
0
100
AcDbBlockEnd
  0
BLOCK
  5
1F1A
330
1F10
100
AcDbEntity
  8
0
100
AcDbBlockBegin
  2
*D15
 70
     1
 10
0.0
 20
0.0
 30
0.0
  3
*D15
  1

  0
LINE
  5
6A37
330
1F10
100
AcDbEntity
  8
AM_5
100
AcDbLine
 10
326.9106791656552
 20
316.5817799410738
 30
0.0
 11
326.9106791656552
 21
368.5817799410738
 31
0.0
  0
LINE
  5
6A38
330
1F10
100
AcDbEntity
  8
AM_5
100
AcDbLine
 10
376.9106791656552
 20
316.5817799410738
 30
0.0
 11
376.9106791656552
 21
368.5817799410738
 31
0.0
  0
LINE
  5
6A39
330
1F10
100
AcDbEntity
  8
AM_5
100
AcDbLine
 10
331.9106791656552
 20
366.5817799410738
 30
0.0
 11
371.9106791656552
 21
366.5817799410738
 31
0.0
  0
SOLID
  5
6A3A
330
1F10
100
AcDbEntity
  8
AM_5
100
AcDbTrace
 10
331.9106791656552
 20
367.4151132744071
 30
0.0
 11
331.9106791656552
 21
365.7484466077405
 31
0.0
 12
326.9106791656552
 22
366.5817799410738
 32
0.0
 13
326.9106791656552
 23
366.5817799410738
 33
0.0
  0
SOLID
  5
6A3B
330
1F10
100
AcDbEntity
  8
AM_5
100
AcDbTrace
 10
371.9106791656552
 20
367.4151132744071
 30
0.0
 11
371.9106791656552
 21
365.7484466077405
 31
0.0
 12
376.9106791656552
 22
366.5817799410738
 32
0.0
 13
376.9106791656552
 23
366.5817799410738
 33
0.0
  0
MTEXT
  5
6A3C
330
1F10
100
AcDbEntity
  8
AM_5
 62
     2
100
AcDbMText
 10
351.9106791656552
 20
373.0817799410738
 30
0.0
 40
7.0
 41
0.0
 71
     5
 72
     1
  1
50
 73
     1
 44
1.0
1001
ACAD
1000
MTEXTBEGIN
1070
    73
1070
     1
1070
    44
1040
1.0
1070
    74
1070
     0
1000
MTEXTEND
  0
POINT
  5
6A3D
330
1F10
100
AcDbEntity
  8
Defpoints
 62
     0
100
AcDbPoint
 10
326.9106791656552
 20
314.5817799410738
 30
0.0
  0
POINT
  5
6A3E
330
1F10
100
AcDbEntity
  8
Defpoints
 62
     0
100
AcDbPoint
 10
376.9106791656552
 20
314.5817799410738
 30
0.0
  0
POINT
  5
6A3F
330
1F10
100
AcDbEntity
  8
Defpoints
 62
     0
100
AcDbPoint
 10
376.9106791656552
 20
366.5817799410738
 30
0.0
  0
ENDBLK
  5
1F1B
330
1F10
100
AcDbEntity
  8
0
100
AcDbBlockEnd
  0
BLOCK
  5
1F26
330
1F1C
100
AcDbEntity
  8
0
100
AcDbBlockBegin
  2
*D16
 70
     1
 10
0.0
 20
0.0
 30
0.0
  3
*D16
  1

  0
LINE
  5
6A40
330
1F1C
100
AcDbEntity
  8
AM_5
100
AcDbLine
 10
351.9106791656552
 20
319.5817799410738
 30
0.0
 11
351.9106791656552
 21
348.5817799410738
 31
0.0
  0
LINE
  5
6A41
330
1F1C
100
AcDbEntity
  8
AM_5
100
AcDbLine
 10
326.9106791656552
 20
319.5817799410736
 30
0.0
 11
326.9106791656552
 21
348.5817799410738
 31
0.0
  0
LINE
  5
6A42
330
1F1C
100
AcDbEntity
  8
AM_5
100
AcDbLine
 10
346.9106791656552
 20
346.5817799410738
 30
0.0
 11
331.9106791656552
 21
346.5817799410738
 31
0.0
  0
SOLID
  5
6A43
330
1F1C
100
AcDbEntity
  8
AM_5
100
AcDbTrace
 10
346.9106791656552
 20
347.4151132744071
 30
0.0
 11
346.9106791656552
 21
345.7484466077405
 31
0.0
 12
351.9106791656552
 22
346.5817799410738
 32
0.0
 13
351.9106791656552
 23
346.5817799410738
 33
0.0
  0
SOLID
  5
6A44
330
1F1C
100
AcDbEntity
  8
AM_5
100
AcDbTrace
 10
331.9106791656552
 20
347.4151132744071
 30
0.0
 11
331.9106791656552
 21
345.7484466077405
 31
0.0
 12
326.9106791656552
 22
346.5817799410738
 32
0.0
 13
326.9106791656552
 23
346.5817799410738
 33
0.0
  0
MTEXT
  5
6A45
330
1F1C
100
AcDbEntity
  8
AM_5
 62
     2
100
AcDbMText
 10
339.4106791656552
 20
353.0824689174518
 30
0.0
 40
7.0
 41
0.0
 71
     5
 72
     1
  1
25
 73
     1
 44
1.0
1001
ACAD
1000
MTEXTBEGIN
1070
    73
1070
     1
1070
    44
1040
1.0
1070
    74
1070
     0
1000
MTEXTEND
  0
POINT
  5
6A46
330
1F1C
100
AcDbEntity
  8
Defpoints
 62
     0
100
AcDbPoint
 10
351.9106791656552
 20
317.5817799410738
 30
0.0
  0
POINT
  5
6A47
330
1F1C
100
AcDbEntity
  8
Defpoints
 62
     0
100
AcDbPoint
 10
326.9106791656552
 20
317.5817799410736
 30
0.0
  0
POINT
  5
6A48
330
1F1C
100
AcDbEntity
  8
Defpoints
 62
     0
100
AcDbPoint
 10
326.9106791656552
 20
346.5817799410738
 30
0.0
  0
ENDBLK
  5
1F27
330
1F1C
100
AcDbEntity
  8
0
100
AcDbBlockEnd
  0
BLOCK
  5
1FBD
330
1FB3
100
AcDbEntity
  8
0
100
AcDbBlockBegin
  2
*D17
 70
     1
 10
0.0
 20
0.0
 30
0.0
  3
*D17
  1

  0
LINE
  5
6B20
330
1FB3
100
AcDbEntity
  8
AM_5
100
AcDbLine
 10
319.9106799531728
 20
307.5817802854647
 30
0.0
 11
319.9106799531728
 21
260.6889902767725
 31
0.0
  0
LINE
  5
6B21
330
1FB3
100
AcDbEntity
  8
AM_5
100
AcDbLine
 10
351.9106791656552
 20
286.8545165946825
 30
0.0
 11
351.9106791656552
 21
260.6889902767725
 31
0.0
  0
LINE
  5
6B22
330
1FB3
100
AcDbEntity
  8
AM_5
100
AcDbLine
 10
324.9106799531728
 20
262.6889902767725
 30
0.0
 11
346.9106791656552
 21
262.6889902767725
 31
0.0
  0
SOLID
  5
6B23
330
1FB3
100
AcDbEntity
  8
AM_5
100
AcDbTrace
 10
324.9106799531728
 20
263.5223236101059
 30
0.0
 11
324.9106799531728
 21
261.8556569434392
 31
0.0
 12
319.9106799531728
 22
262.6889902767725
 32
0.0
 13
319.9106799531728
 23
262.6889902767725
 33
0.0
  0
SOLID
  5
6B24
330
1FB3
100
AcDbEntity
  8
AM_5
100
AcDbTrace
 10
346.9106791656552
 20
263.5223236101059
 30
0.0
 11
346.9106791656552
 21
261.8556569434392
 31
0.0
 12
351.9106791656552
 22
262.6889902767725
 32
0.0
 13
351.9106791656552
 23
262.6889902767725
 33
0.0
  0
MTEXT
  5
6B25
330
1FB3
100
AcDbEntity
  8
AM_5
 62
     2
100
AcDbMText
 10
335.910679559414
 20
269.1896792531505
 30
0.0
 40
7.0
 41
0.0
 71
     5
 72
     1
  1
32
 73
     1
 44
1.0
1001
ACAD
1000
MTEXTBEGIN
1070
    73
1070
     1
1070
    44
1040
1.0
1070
    74
1070
     0
1000
MTEXTEND
  0
POINT
  5
6B26
330
1FB3
100
AcDbEntity
  8
Defpoints
 62
     0
100
AcDbPoint
 10
319.9106799531728
 20
309.5817802854647
 30
0.0
  0
POINT
  5
6B27
330
1FB3
100
AcDbEntity
  8
Defpoints
 62
     0
100
AcDbPoint
 10
351.9106791656552
 20
288.8545165946825
 30
0.0
  0
POINT
  5
6B28
330
1FB3
100
AcDbEntity
  8
Defpoints
 62
     0
100
AcDbPoint
 10
351.9106791656552
 20
262.6889902767725
 30
0.0
  0
ENDBLK
  5
1FBE
330
1FB3
100
AcDbEntity
  8
0
100
AcDbBlockEnd
  0
BLOCK
  5
1FC9
330
1FBF
100
AcDbEntity
  8
0
100
AcDbBlockBegin
  2
*D18
 70
     1
 10
0.0
 20
0.0
 30
0.0
  3
*D18
  1

  0
LINE
  5
69C8
330
1FBF
100
AcDbEntity
  8
AM_5
100
AcDbLine
 10
324.9106791656552
 20
314.5817799410738
 30
0.0
 11
15.91067916565477
 21
314.5817799410739
 31
0.0
  0
LINE
  5
69C9
330
1FBF
100
AcDbEntity
  8
AM_5
100
AcDbLine
 10
99.91067916565521
 20
134.5817799410738
 30
0.0
 11
15.91067916565475
 21
134.5817799410738
 31
0.0
  0
LINE
  5
69CA
330
1FBF
100
AcDbEntity
  8
AM_5
100
AcDbLine
 10
17.91067916565479
 20
309.5817799410739
 30
0.0
 11
17.91067916565476
 21
139.5817799410738
 31
0.0
  0
SOLID
  5
69CB
330
1FBF
100
AcDbEntity
  8
AM_5
100
AcDbTrace
 10
17.07734583232146
 20
309.5817799410739
 30
0.0
 11
18.74401249898813
 21
309.5817799410739
 31
0.0
 12
17.9106791656548
 22
314.5817799410739
 32
0.0
 13
17.9106791656548
 23
314.5817799410739
 33
0.0
  0
SOLID
  5
69CC
330
1FBF
100
AcDbEntity
  8
AM_5
100
AcDbTrace
 10
17.07734583232143
 20
139.5817799410738
 30
0.0
 11
18.74401249898809
 21
139.5817799410738
 31
0.0
 12
17.91067916565475
 22
134.5817799410738
 32
0.0
 13
17.91067916565475
 23
134.5817799410738
 33
0.0
  0
MTEXT
  5
69CD
330
1FBF
100
AcDbEntity
  8
AM_5
 62
     2
100
AcDbMText
 10
11.41067916565474
 20
224.5817799410739
 30
0.0
 40
7.0
 41
0.0
 71
     5
 72
     1
  1
180
 11
0.0000000000000001
 21
1.0
 31
0.0
 73
     1
 44
1.0
1001
ACAD
1000
MTEXTBEGIN
1070
    73
1070
     1
1070
    44
1040
1.0
1070
    74
1070
     0
1000
MTEXTEND
  0
POINT
  5
69CE
330
1FBF
100
AcDbEntity
  8
Defpoints
 62
     0
100
AcDbPoint
 10
326.9106791656552
 20
314.5817799410738
 30
0.0
  0
POINT
  5
69CF
330
1FBF
100
AcDbEntity
  8
Defpoints
 62
     0
100
AcDbPoint
 10
101.9106791656552
 20
134.5817799410738
 30
0.0
  0
POINT
  5
69D0
330
1FBF
100
AcDbEntity
  8
Defpoints
 62
     0
100
AcDbPoint
 10
17.91067916565475
 20
134.5817799410738
 30
0.0
  0
ENDBLK
  5
1FCA
330
1FBF
100
AcDbEntity
  8
0
100
AcDbBlockEnd
  0
BLOCK
  5
1FD7
330
1FCB
100
AcDbEntity
  8
0
100
AcDbBlockBegin
  2
*D19
 70
     1
 10
0.0
 20
0.0
 30
0.0
  3
*D19
  1

  0
LINE
  5
6B29
330
1FCB
100
AcDbEntity
  8
AM_5
100
AcDbLine
 10
324.9106791656552
 20
314.5817799410738
 30
0.0
 11
287.7712129791796
 21
314.5817799410738
 31
0.0
  0
LINE
  5
6B2A
330
1FCB
100
AcDbEntity
  8
AM_5
100
AcDbLine
 10
317.9106791656545
 20
309.5817799410738
 30
0.0
 11
287.7712129791796
 21
309.5817799410738
 31
0.0
  0
LINE
  5
6B2B
330
1FCB
100
AcDbEntity
  8
AM_5
100
AcDbLine
 10
289.7712129791796
 20
319.5817799410738
 30
0.0
 11
289.7712129791796
 21
324.5817799410738
 31
0.0
  0
LINE
  5
6B2C
330
1FCB
100
AcDbEntity
  8
AM_5
100
AcDbLine
 10
289.7712129791796
 20
304.5817799410738
 30
0.0
 11
289.7712129791796
 21
290.4918304474127
 31
0.0
  0
LINE
  5
6B2D
330
1FCB
100
AcDbEntity
  8
AM_5
100
AcDbLine
 10
289.7712129791796
 20
314.5817799410738
 30
0.0
 11
289.7712129791796
 21
309.5817799410738
 31
0.0
  0
SOLID
  5
6B2E
330
1FCB
100
AcDbEntity
  8
AM_5
100
AcDbTrace
 10
288.9378796458463
 20
319.5817799410738
 30
0.0
 11
290.6045463125129
 21
319.5817799410738
 31
0.0
 12
289.7712129791796
 22
314.5817799410738
 32
0.0
 13
289.7712129791796
 23
314.5817799410738
 33
0.0
  0
SOLID
  5
6B2F
330
1FCB
100
AcDbEntity
  8
AM_5
100
AcDbTrace
 10
288.9378796458463
 20
304.5817799410738
 30
0.0
 11
290.6045463125129
 21
304.5817799410738
 31
0.0
 12
289.7712129791796
 22
309.5817799410738
 32
0.0
 13
289.7712129791796
 23
309.5817799410738
 33
0.0
  0
MTEXT
  5
6B30
330
1FCB
100
AcDbEntity
  8
AM_5
 62
     2
100
AcDbMText
 10
283.2712129791795
 20
295.0368051942433
 30
0.0
 40
7.0
 41
0.0
 71
     5
 72
     1
  1
5
 11
0.0000000000000001
 21
1.0
 31
0.0
 73
     1
 44
1.0
1001
ACAD
1000
MTEXTBEGIN
1070
    73
1070
     1
1070
    44
1040
1.0
1070
    74
1070
     0
1000
MTEXTEND
  0
POINT
  5
6B31
330
1FCB
100
AcDbEntity
  8
Defpoints
 62
     0
100
AcDbPoint
 10
326.9106791656552
 20
314.5817799410738
 30
0.0
  0
POINT
  5
6B32
330
1FCB
100
AcDbEntity
  8
Defpoints
 62
     0
100
AcDbPoint
 10
319.9106791656545
 20
309.5817799410738
 30
0.0
  0
POINT
  5
6B33
330
1FCB
100
AcDbEntity
  8
Defpoints
 62
     0
100
AcDbPoint
 10
289.7712129791796
 20
309.5817799410738
 30
0.0
  0
ENDBLK
  5
1FD8
330
1FCB
100
AcDbEntity
  8
0
100
AcDbBlockEnd
  0
BLOCK
  5
2019
330
200F
100
AcDbEntity
  8
0
100
AcDbBlockBegin
  2
*D20
 70
     1
 10
0.0
 20
0.0
 30
0.0
  3
*D20
  1

  0
LINE
  5
6AFF
330
200F
100
AcDbEntity
  8
AM_5
100
AcDbLine
 10
601.9106791656552
 20
366.5817799410738
 30
0.0
 11
601.9106791656552
 21
390.5817799410739
 31
0.0
  0
LINE
  5
6B00
330
200F
100
AcDbEntity
  8
AM_5
100
AcDbLine
 10
464.9106794710213
 20
366.5817799410738
 30
0.0
 11
464.9106794710213
 21
390.5817799410739
 31
0.0
  0
LINE
  5
6B01
330
200F
100
AcDbEntity
  8
AM_5
100
AcDbLine
 10
596.9106791656551
 20
388.5817799410739
 30
0.0
 11
469.9106794710213
 21
388.5817799410739
 31
0.0
  0
SOLID
  5
6B02
330
200F
100
AcDbEntity
  8
AM_5
100
AcDbTrace
 10
596.9106791656551
 20
389.4151132744072
 30
0.0
 11
596.9106791656551
 21
387.7484466077406
 31
0.0
 12
601.9106791656552
 22
388.5817799410739
 32
0.0
 13
601.9106791656552
 23
388.5817799410739
 33
0.0
  0
SOLID
  5
6B03
330
200F
100
AcDbEntity
  8
AM_5
100
AcDbTrace
 10
469.9106794710213
 20
389.4151132744072
 30
0.0
 11
469.9106794710213
 21
387.7484466077406
 31
0.0
 12
464.9106794710213
 22
388.5817799410739
 32
0.0
 13
464.9106794710213
 23
388.5817799410739
 33
0.0
  0
MTEXT
  5
6B04
330
200F
100
AcDbEntity
  8
AM_5
 62
     2
100
AcDbMText
 10
533.4106793183382
 20
395.081779941074
 30
0.0
 40
7.0
 41
0.0
 71
     5
 72
     1
  1
137
 73
     1
 44
1.0
1001
ACAD
1000
MTEXTBEGIN
1070
    73
1070
     1
1070
    44
1040
1.0
1070
    74
1070
     0
1000
MTEXTEND
  0
POINT
  5
6B05
330
200F
100
AcDbEntity
  8
Defpoints
 62
     0
100
AcDbPoint
 10
601.9106791656552
 20
364.5817799410738
 30
0.0
  0
POINT
  5
6B06
330
200F
100
AcDbEntity
  8
Defpoints
 62
     0
100
AcDbPoint
 10
464.9106794710213
 20
364.5817799410738
 30
0.0
  0
POINT
  5
6B07
330
200F
100
AcDbEntity
  8
Defpoints
 62
     0
100
AcDbPoint
 10
464.9106794710213
 20
388.5817799410739
 30
0.0
  0
ENDBLK
  5
201A
330
200F
100
AcDbEntity
  8
0
100
AcDbBlockEnd
  0
BLOCK
  5
2CB5
330
2CAB
100
AcDbEntity
  8
0
100
AcDbBlockBegin
  2
*D21
 70
     1
 10
0.0
 20
0.0
 30
0.0
  3
*D21
  1

  0
LINE
  5
6A66
330
2CAB
100
AcDbEntity
  8
AM_5
100
AcDbLine
 10
99.91067916565521
 20
364.5817799410738
 30
0.0
 11
15.91067916565499
 21
364.5817799410738
 31
0.0
  0
LINE
  5
6A67
330
2CAB
100
AcDbEntity
  8
AM_5
100
AcDbLine
 10
324.9106791656552
 20
314.5817799410738
 30
0.0
 11
15.91067916565499
 21
314.5817799410739
 31
0.0
  0
LINE
  5
6A68
330
2CAB
100
AcDbEntity
  8
AM_5
100
AcDbLine
 10
17.91067916565499
 20
359.5817799410738
 30
0.0
 11
17.91067916565498
 21
319.5817799410739
 31
0.0
  0
SOLID
  5
6A69
330
2CAB
100
AcDbEntity
  8
AM_5
100
AcDbTrace
 10
17.07734583232166
 20
359.5817799410738
 30
0.0
 11
18.74401249898832
 21
359.5817799410738
 31
0.0
 12
17.91067916565499
 22
364.5817799410738
 32
0.0
 13
17.91067916565499
 23
364.5817799410738
 33
0.0
  0
SOLID
  5
6A6A
330
2CAB
100
AcDbEntity
  8
AM_5
100
AcDbTrace
 10
17.07734583232165
 20
319.5817799410739
 30
0.0
 11
18.74401249898831
 21
319.5817799410739
 31
0.0
 12
17.91067916565498
 22
314.5817799410739
 32
0.0
 13
17.91067916565498
 23
314.5817799410739
 33
0.0
  0
MTEXT
  5
6A6B
330
2CAB
100
AcDbEntity
  8
AM_5
 62
     2
100
AcDbMText
 10
11.41067916565493
 20
339.5817799410738
 30
0.0
 40
7.0
 41
0.0
 71
     5
 72
     1
  1
50
 11
0.0000000000000001
 21
1.0
 31
0.0
 73
     1
 44
1.0
1001
ACAD
1000
MTEXTBEGIN
1070
    73
1070
     1
1070
    44
1040
1.0
1070
    74
1070
     0
1000
MTEXTEND
  0
POINT
  5
6A6C
330
2CAB
100
AcDbEntity
  8
Defpoints
 62
     0
100
AcDbPoint
 10
101.9106791656552
 20
364.5817799410738
 30
0.0
  0
POINT
  5
6A6D
330
2CAB
100
AcDbEntity
  8
Defpoints
 62
     0
100
AcDbPoint
 10
326.9106791656552
 20
314.5817799410738
 30
0.0
  0
POINT
  5
6A6E
330
2CAB
100
AcDbEntity
  8
Defpoints
 62
     0
100
AcDbPoint
 10
17.91067916565498
 20
314.5817799410739
 30
0.0
  0
ENDBLK
  5
2CB6
330
2CAB
100
AcDbEntity
  8
0
100
AcDbBlockEnd
  0
BLOCK
  5
571A
330
570E
100
AcDbEntity
  8
0
100
AcDbBlockBegin
  2
*D22
 70
     1
 10
0.0
 20
0.0
 30
0.0
  3
*D22
  1

  0
LINE
  5
6BAA
330
570E
100
AcDbEntity
  8
AM_5
100
AcDbLine
 10
319.9106791656552
 20
307.5817802854647
 30
0.0
 11
319.9106791656552
 21
283.5817799410739
 31
0.0
  0
LINE
  5
6BAB
330
570E
100
AcDbEntity
  8
AM_5
100
AcDbLine
 10
315.9106788602847
 20
307.5817799410739
 30
0.0
 11
315.9106788602847
 21
283.5817799410739
 31
0.0
  0
LINE
  5
6BAC
330
570E
100
AcDbEntity
  8
AM_5
100
AcDbLine
 10
324.9106791656552
 20
285.5817799410739
 30
0.0
 11
329.9106791656552
 21
285.5817799410739
 31
0.0
  0
LINE
  5
6BAD
330
570E
100
AcDbEntity
  8
AM_5
100
AcDbLine
 10
310.9106788602847
 20
285.5817799410739
 30
0.0
 11
296.4106788602847
 21
285.5817799410739
 31
0.0
  0
LINE
  5
6BAE
330
570E
100
AcDbEntity
  8
AM_5
100
AcDbLine
 10
319.9106791656552
 20
285.5817799410739
 30
0.0
 11
315.9106788602847
 21
285.5817799410739
 31
0.0
  0
SOLID
  5
6BAF
330
570E
100
AcDbEntity
  8
AM_5
100
AcDbTrace
 10
324.9106791656552
 20
286.4151132744073
 30
0.0
 11
324.9106791656552
 21
284.7484466077406
 31
0.0
 12
319.9106791656552
 22
285.5817799410739
 32
0.0
 13
319.9106791656552
 23
285.5817799410739
 33
0.0
  0
SOLID
  5
6BB0
330
570E
100
AcDbEntity
  8
AM_5
100
AcDbTrace
 10
310.9106788602847
 20
286.4151132744073
 30
0.0
 11
310.9106788602847
 21
284.7484466077406
 31
0.0
 12
315.9106788602847
 22
285.5817799410739
 32
0.0
 13
315.9106788602847
 23
285.5817799410739
 33
0.0
  0
MTEXT
  5
6BB1
330
570E
100
AcDbEntity
  8
AM_5
 62
     2
100
AcDbMText
 10
301.1606788602847
 20
292.0817799410739
 30
0.0
 40
7.0
 41
0.0
 71
     5
 72
     1
  1
4
 73
     1
 44
1.0
1001
ACAD
1000
MTEXTBEGIN
1070
    73
1070
     1
1070
    44
1040
1.0
1070
    74
1070
     0
1000
MTEXTEND
  0
POINT
  5
6BB2
330
570E
100
AcDbEntity
  8
Defpoints
 62
     0
100
AcDbPoint
 10
319.9106791656552
 20
309.5817802854647
 30
0.0
  0
POINT
  5
6BB3
330
570E
100
AcDbEntity
  8
Defpoints
 62
     0
100
AcDbPoint
 10
315.9106788602847
 20
309.5817799410739
 30
0.0
  0
POINT
  5
6BB4
330
570E
100
AcDbEntity
  8
Defpoints
 62
     0
100
AcDbPoint
 10
315.9106788602847
 20
285.5817799410739
 30
0.0
  0
ENDBLK
  5
571B
330
570E
100
AcDbEntity
  8
0
100
AcDbBlockEnd
  0
BLOCK
  5
6B51
330
6B45
100
AcDbEntity
  8
0
100
AcDbBlockBegin
  2
*D23
 70
     1
 10
0.0
 20
0.0
 30
0.0
  3
*D23
  1

  0
LINE
  5
6BEC
330
6B45
100
AcDbEntity
  8
AM_5
100
AcDbLine
 10
326.9106791656552
 20
316.5817799410738
 30
0.0
 11
326.9106791656552
 21
368.5817799410738
 31
0.0
  0
LINE
  5
6BED
330
6B45
100
AcDbEntity
  8
AM_5
100
AcDbLine
 10
319.9106791656552
 20
311.5817802854647
 30
0.0
 11
319.9106791656552
 21
368.5817799410738
 31
0.0
  0
LINE
  5
6BEE
330
6B45
100
AcDbEntity
  8
AM_5
100
AcDbLine
 10
331.9106791656552
 20
366.5817799410738
 30
0.0
 11
336.9106791656552
 21
366.5817799410738
 31
0.0
  0
LINE
  5
6BEF
330
6B45
100
AcDbEntity
  8
AM_5
100
AcDbLine
 10
314.9106791656552
 20
366.5817799410738
 30
0.0
 11
301.1106791656552
 21
366.5817799410738
 31
0.0
  0
LINE
  5
6BF0
330
6B45
100
AcDbEntity
  8
AM_5
100
AcDbLine
 10
326.9106791656552
 20
366.5817799410738
 30
0.0
 11
319.9106791656552
 21
366.5817799410738
 31
0.0
  0
SOLID
  5
6BF1
330
6B45
100
AcDbEntity
  8
AM_5
100
AcDbTrace
 10
331.9106791656552
 20
367.4151132744071
 30
0.0
 11
331.9106791656552
 21
365.7484466077404
 31
0.0
 12
326.9106791656552
 22
366.5817799410738
 32
0.0
 13
326.9106791656552
 23
366.5817799410738
 33
0.0
  0
SOLID
  5
6BF2
330
6B45
100
AcDbEntity
  8
AM_5
100
AcDbTrace
 10
314.9106791656552
 20
367.4151132744071
 30
0.0
 11
314.9106791656552
 21
365.7484466077404
 31
0.0
 12
319.9106791656552
 22
366.5817799410738
 32
0.0
 13
319.9106791656552
 23
366.5817799410738
 33
0.0
  0
MTEXT
  5
6BF3
330
6B45
100
AcDbEntity
  8
AM_5
 62
     2
100
AcDbMText
 10
305.5106791656552
 20
373.0817799410738
 30
0.0
 40
7.0
 41
0.0
 71
     5
 72
     1
  1
7
 73
     1
 44
1.0
1001
ACAD
1000
MTEXTBEGIN
1070
    73
1070
     1
1070
    44
1040
1.0
1070
    74
1070
     0
1000
MTEXTEND
  0
POINT
  5
6BF4
330
6B45
100
AcDbEntity
  8
Defpoints
 62
     0
100
AcDbPoint
 10
326.9106791656552
 20
314.5817799410738
 30
0.0
  0
POINT
  5
6BF5
330
6B45
100
AcDbEntity
  8
Defpoints
 62
     0
100
AcDbPoint
 10
319.9106791656552
 20
309.5817802854647
 30
0.0
  0
POINT
  5
6BF6
330
6B45
100
AcDbEntity
  8
Defpoints
 62
     0
100
AcDbPoint
 10
319.9106791656552
 20
366.5817799410738
 30
0.0
  0
ENDBLK
  5
6B52
330
6B45
100
AcDbEntity
  8
0
100
AcDbBlockEnd
  0
BLOCK
  5
6C43
330
6C37
100
AcDbEntity
  8
0
100
AcDbBlockBegin
  2
*D24
 70
     1
 10
0.0
 20
0.0
 30
0.0
  3
*D24
  1

  0
LINE
  5
6C47
330
6C37
100
AcDbEntity
  8
AM_5
100
AcDbLine
 10
403.0675826591862
 20
322.5817799410738
 30
0.0
 11
442.2850142914184
 21
322.5817799410738
 31
0.0
  0
LINE
  5
6C48
330
6C37
100
AcDbEntity
  8
AM_5
100
AcDbLine
 10
378.9106791656552
 20
314.5817799410738
 30
0.0
 11
442.2850142914184
 21
314.5817799410738
 31
0.0
  0
LINE
  5
6C49
330
6C37
100
AcDbEntity
  8
AM_5
100
AcDbLine
 10
440.2850142914185
 20
327.5817799410738
 30
0.0
 11
440.2850142914185
 21
332.5817799410738
 31
0.0
  0
LINE
  5
6C4A
330
6C37
100
AcDbEntity
  8
AM_5
100
AcDbLine
 10
440.2850142914185
 20
309.5817799410738
 30
0.0
 11
440.2850142914185
 21
295.7817799410737
 31
0.0
  0
LINE
  5
6C4B
330
6C37
100
AcDbEntity
  8
AM_5
100
AcDbLine
 10
440.2850142914185
 20
322.5817799410738
 30
0.0
 11
440.2850142914185
 21
314.5817799410738
 31
0.0
  0
SOLID
  5
6C4C
330
6C37
100
AcDbEntity
  8
AM_5
100
AcDbTrace
 10
439.4516809580852
 20
327.5817799410738
 30
0.0
 11
441.1183476247518
 21
327.5817799410738
 31
0.0
 12
440.2850142914185
 22
322.5817799410738
 32
0.0
 13
440.2850142914185
 23
322.5817799410738
 33
0.0
  0
SOLID
  5
6C4D
330
6C37
100
AcDbEntity
  8
AM_5
100
AcDbTrace
 10
439.4516809580852
 20
309.5817799410738
 30
0.0
 11
441.1183476247518
 21
309.5817799410738
 31
0.0
 12
440.2850142914185
 22
314.5817799410738
 32
0.0
 13
440.2850142914185
 23
314.5817799410738
 33
0.0
  0
MTEXT
  5
6C4E
330
6C37
100
AcDbEntity
  8
AM_5
 62
     2
100
AcDbMText
 10
433.7850142914184
 20
300.1817799410739
 30
0.0
 40
7.0
 41
0.0
 71
     5
 72
     1
  1
8
 11
0.0000000000000001
 21
1.0
 31
0.0
 73
     1
 44
1.0
1001
ACAD
1000
MTEXTBEGIN
1070
    73
1070
     1
1070
    44
1040
1.0
1070
    74
1070
     0
1000
MTEXTEND
  0
POINT
  5
6C4F
330
6C37
100
AcDbEntity
  8
Defpoints
 62
     0
100
AcDbPoint
 10
401.0675826591862
 20
322.5817799410738
 30
0.0
  0
POINT
  5
6C50
330
6C37
100
AcDbEntity
  8
Defpoints
 62
     0
100
AcDbPoint
 10
376.9106791656552
 20
314.5817799410738
 30
0.0
  0
POINT
  5
6C51
330
6C37
100
AcDbEntity
  8
Defpoints
 62
     0
100
AcDbPoint
 10
440.2850142914185
 20
314.5817799410738
 30
0.0
  0
ENDBLK
  5
6C44
330
6C37
100
AcDbEntity
  8
0
100
AcDbBlockEnd
  0
BLOCK
  5
6C84
330
6C7F
100
AcDbEntity
  8
0
100
AcDbBlockBegin
  2
*S25
 70
     1
 10
0.0
 20
0.0
 30
0.0
  3
*S25
  1

  0
LINE
  5
6C80
330
6C7F
100
AcDbEntity
  8
AM_5
100
AcDbLine
 10
504.0522356745681
 20
399.1468106596504
 30
0.0
 11
400.1777474855916
 21
399.1468106596504
 31
0.0
  0
LINE
  5
6C81
330
6C7F
100
AcDbEntity
  8
AM_5
100
AcDbLine
 10
400.1777474855916
 20
399.1468106596504
 30
0.0
 11
383.0477011103491
 21
329.3798634197095
 31
0.0
  0
TRACE
  5
6C82
330
6C7F
100
AcDbEntity
  8
AM_5
100
AcDbTrace
 10
382.1527164455723
 20
329.599611157274
 30
0.0
 11
383.942685775126
 21
329.160115682145
 31
0.0
 12
381.3785513215344
 22
322.5817799410738
 32
0.0
 13
381.3785513215344
 23
322.5817799410738
 33
0.0
  0
MTEXT
  5
6C83
330
6C7F
100
AcDbEntity
  8
AM_5
 62
     2
100
AcDbMText
 10
407.1777474855917
 20
402.6468106596504
 30
0.0
 40
7.0
 41
0.0
 71
     7
 72
     5
  1
Schienenoberkante (SO)
  7
ACDINTS
 73
     1
 44
1.0
1001
ACAD
1000
MTEXTBEGIN
1070
    73
1070
     1
1070
    44
1040
1.0
1070
    74
1070
     0
1000
MTEXTEND
  0
ENDBLK
  5
6C85
330
6C7F
100
AcDbEntity
  8
0
100
AcDbBlockEnd
  0
ENDSEC
  0
SECTION
  2
ENTITIES
  0
LINE
  5
344
330
1F
100
AcDbEntity
  8
AM_7
  6
AM_DIN_G_W050x2
100
AcDbLine
 10
471.9106791656551
 20
265.5817799410738
 30
0.0
 11
463.9106791656551
 21
265.5817799410738
 31
0.0
1001
GENIUS_GENOREF_13
1005
364
  0
LINE
  5
345
330
1F
100
AcDbEntity
  8
AM_7
  6
AM_DIN_G_W050x2
100
AcDbLine
 10
471.9106791656551
 20
265.5817799410738
 30
0.0
 11
471.9106791656551
 21
273.5817799410738
 31
0.0
1001
GENIUS_GENOREF_13
1005
364
  0
LINE
  5
346
330
1F
100
AcDbEntity
  8
AM_7
  6
AM_DIN_G_W050x2
100
AcDbLine
 10
471.9106791656551
 20
265.5817799410738
 30
0.0
 11
479.9106791656551
 21
265.5817799410738
 31
0.0
1001
GENIUS_GENOREF_13
1005
364
  0
LINE
  5
347
330
1F
100
AcDbEntity
  8
AM_7
  6
AM_DIN_G_W050x2
100
AcDbLine
 10
471.9106791656551
 20
265.5817799410738
 30
0.0
 11
471.9106791656551
 21
257.5817799410738
 31
0.0
1001
GENIUS_GENOREF_13
1005
364
  0
CIRCLE
  5
348
330
1F
100
AcDbEntity
  8
0
100
AcDbCircle
 10
471.9106791656551
 20
265.5817799410738
 30
0.0
 40
5.0
  0
LINE
  5
349
330
1F
100
AcDbEntity
  8
AM_7
  6
AM_DIN_G_W050x2
100
AcDbLine
 10
451.9106791656552
 20
244.5817799410738
 30
0.0
 11
443.9106791656552
 21
244.5817799410738
 31
0.0
1001
GENIUS_GENOREF_13
1005
365
  0
LINE
  5
34A
330
1F
100
AcDbEntity
  8
AM_7
  6
AM_DIN_G_W050x2
100
AcDbLine
 10
451.9106791656552
 20
244.5817799410738
 30
0.0
 11
451.9106791656552
 21
252.5817799410738
 31
0.0
1001
GENIUS_GENOREF_13
1005
365
  0
LINE
  5
34B
330
1F
100
AcDbEntity
  8
AM_7
  6
AM_DIN_G_W050x2
100
AcDbLine
 10
451.9106791656552
 20
244.5817799410738
 30
0.0
 11
459.9106791656551
 21
244.5817799410738
 31
0.0
1001
GENIUS_GENOREF_13
1005
365
  0
LINE
  5
34C
330
1F
100
AcDbEntity
  8
AM_7
  6
AM_DIN_G_W050x2
100
AcDbLine
 10
451.9106791656552
 20
244.5817799410738
 30
0.0
 11
451.9106791656552
 21
236.5817799410738
 31
0.0
1001
GENIUS_GENOREF_13
1005
365
  0
CIRCLE
  5
34D
330
1F
100
AcDbEntity
  8
0
100
AcDbCircle
 10
451.9106791656552
 20
244.5817799410738
 30
0.0
 40
5.0
  0
LINE
  5
34E
330
1F
100
AcDbEntity
  8
AM_7
  6
AM_DIN_G_W050x2
100
AcDbLine
 10
541.9106791656552
 20
174.5817799410738
 30
0.0
 11
533.9106791656551
 21
174.5817799410738
 31
0.0
1001
GENIUS_GENOREF_13
1005
366
  0
LINE
  5
34F
330
1F
100
AcDbEntity
  8
AM_7
  6
AM_DIN_G_W050x2
100
AcDbLine
 10
541.9106791656552
 20
174.5817799410738
 30
0.0
 11
541.9106791656552
 21
182.5817799410738
 31
0.0
1001
GENIUS_GENOREF_13
1005
366
  0
LINE
  5
350
330
1F
100
AcDbEntity
  8
AM_7
  6
AM_DIN_G_W050x2
100
AcDbLine
 10
541.9106791656552
 20
174.5817799410738
 30
0.0
 11
549.9106791656552
 21
174.5817799410738
 31
0.0
1001
GENIUS_GENOREF_13
1005
366
  0
LINE
  5
351
330
1F
100
AcDbEntity
  8
AM_7
  6
AM_DIN_G_W050x2
100
AcDbLine
 10
541.9106791656552
 20
174.5817799410738
 30
0.0
 11
541.9106791656552
 21
166.5817799410738
 31
0.0
1001
GENIUS_GENOREF_13
1005
366
  0
CIRCLE
  5
352
330
1F
100
AcDbEntity
  8
0
100
AcDbCircle
 10
541.9106791656552
 20
174.5817799410738
 30
0.0
 40
5.0
  0
CIRCLE
  5
353
330
1F
100
AcDbEntity
  8
0
100
AcDbCircle
 10
161.9106791656552
 20
174.5817799410738
 30
0.0
 40
5.0
  0
LINE
  5
354
330
1F
100
AcDbEntity
  8
AM_7
  6
AM_DIN_G_W050x2
100
AcDbLine
 10
161.9106791656552
 20
174.5817799410738
 30
0.0
 11
161.9106791656552
 21
166.5817799410738
 31
0.0
1001
GENIUS_GENOREF_13
1005
367
  0
LINE
  5
355
330
1F
100
AcDbEntity
  8
AM_7
  6
AM_DIN_G_W050x2
100
AcDbLine
 10
161.9106791656552
 20
174.5817799410738
 30
0.0
 11
153.9106791656552
 21
174.5817799410738
 31
0.0
1001
GENIUS_GENOREF_13
1005
367
  0
LINE
  5
356
330
1F
100
AcDbEntity
  8
AM_7
  6
AM_DIN_G_W050x2
100
AcDbLine
 10
161.9106791656552
 20
174.5817799410738
 30
0.0
 11
161.9106791656552
 21
182.5817799410738
 31
0.0
1001
GENIUS_GENOREF_13
1005
367
  0
LINE
  5
357
330
1F
100
AcDbEntity
  8
AM_7
  6
AM_DIN_G_W050x2
100
AcDbLine
 10
161.9106791656552
 20
174.5817799410738
 30
0.0
 11
169.9106791656552
 21
174.5817799410738
 31
0.0
1001
GENIUS_GENOREF_13
1005
367
  0
CIRCLE
  5
358
330
1F
100
AcDbEntity
  8
0
100
AcDbCircle
 10
251.9106791656552
 20
244.5817799410738
 30
0.0
 40
5.0
  0
LINE
  5
359
330
1F
100
AcDbEntity
  8
AM_7
  6
AM_DIN_G_W050x2
100
AcDbLine
 10
251.9106791656552
 20
244.5817799410738
 30
0.0
 11
251.9106791656552
 21
236.5817799410738
 31
0.0
1001
GENIUS_GENOREF_13
1005
368
  0
LINE
  5
35A
330
1F
100
AcDbEntity
  8
AM_7
  6
AM_DIN_G_W050x2
100
AcDbLine
 10
251.9106791656552
 20
244.5817799410738
 30
0.0
 11
243.9106791656552
 21
244.5817799410738
 31
0.0
1001
GENIUS_GENOREF_13
1005
368
  0
LINE
  5
35B
330
1F
100
AcDbEntity
  8
AM_7
  6
AM_DIN_G_W050x2
100
AcDbLine
 10
251.9106791656552
 20
244.5817799410738
 30
0.0
 11
251.9106791656552
 21
252.5817799410738
 31
0.0
1001
GENIUS_GENOREF_13
1005
368
  0
LINE
  5
35C
330
1F
100
AcDbEntity
  8
AM_7
  6
AM_DIN_G_W050x2
100
AcDbLine
 10
251.9106791656552
 20
244.5817799410738
 30
0.0
 11
259.9106791656552
 21
244.5817799410738
 31
0.0
1001
GENIUS_GENOREF_13
1005
368
  0
CIRCLE
  5
35D
330
1F
100
AcDbEntity
  8
0
100
AcDbCircle
 10
231.9106791656552
 20
265.5817799410738
 30
0.0
 40
5.0
  0
LINE
  5
35E
330
1F
100
AcDbEntity
  8
AM_7
  6
AM_DIN_G_W050x2
100
AcDbLine
 10
231.9106791656552
 20
265.5817799410738
 30
0.0
 11
231.9106791656552
 21
257.5817799410738
 31
0.0
1001
GENIUS_GENOREF_13
1005
369
  0
LINE
  5
35F
330
1F
100
AcDbEntity
  8
AM_7
  6
AM_DIN_G_W050x2
100
AcDbLine
 10
231.9106791656552
 20
265.5817799410738
 30
0.0
 11
223.9106791656552
 21
265.5817799410738
 31
0.0
1001
GENIUS_GENOREF_13
1005
369
  0
LINE
  5
360
330
1F
100
AcDbEntity
  8
AM_7
  6
AM_DIN_G_W050x2
100
AcDbLine
 10
231.9106791656552
 20
265.5817799410738
 30
0.0
 11
231.9106791656552
 21
273.5817799410738
 31
0.0
1001
GENIUS_GENOREF_13
1005
369
  0
LINE
  5
361
330
1F
100
AcDbEntity
  8
AM_7
  6
AM_DIN_G_W050x2
100
AcDbLine
 10
231.9106791656552
 20
265.5817799410738
 30
0.0
 11
239.9106791656552
 21
265.5817799410738
 31
0.0
1001
GENIUS_GENOREF_13
1005
369
  0
LINE
  5
362
102
{ACAD_REACTORS
330
6C46
102
}
330
1F
100
AcDbEntity
  8
AM_7
100
AcDbLine
 10
302.7537756721242
 20
322.5817799410738
 30
0.0
 11
401.0675826591862
 21
322.5817799410738
 31
0.0
1001
GENIUS_GENOBJ-N-CEN_13
1002
{
1000
OWNER
1000
GEN
1002
}
1001
GENIUS_GENODEF_13
1002
{
1000
HIER
1070
     0
1002
}
1002
{
1000
MANEDIT
1070
     0
1002
}
1002
{
1000
NOSEL
1070
     0
1002
}
1002
{
1000
BEHIND
1070
     0
1002
}
1002
{
1000
OTHER
1070
     0
1002
}
1002
{
1000
REACTOR
1002
}
  0
LINE
  5
363
330
1F
100
AcDbEntity
  8
AM_7
100
AcDbLine
 10
351.9106791656552
 20
317.5817799410738
 30
0.0
 11
351.9106791656552
 21
131.5817799410738
 31
0.0
1001
GENIUS_GENOBJ-N-CEN_13
1002
{
1000
OWNER
1000
GEN
1002
}
1001
GENIUS_GENODEF_13
1002
{
1000
HIER
1070
     0
1002
}
1002
{
1000
MANEDIT
1070
     0
1002
}
1002
{
1000
NOSEL
1070
     0
1002
}
1002
{
1000
BEHIND
1070
     0
1002
}
1002
{
1000
OTHER
1070
     0
1002
}
1002
{
1000
REACTOR
1002
}
  0
POINT
  5
364
330
1F
100
AcDbEntity
  8
0
 60
     1
100
AcDbPoint
 10
1458.314767011929
 20
-60.20919011601723
 30
0.0
1001
GENIUS_GENODEF_13
1002
{
1000
HIER
1070
    10
1002
}
1002
{
1000
MANEDIT
1070
     0
1002
}
1002
{
1000
NOSEL
1070
     0
1002
}
1002
{
1000
BEHIND
1070
     0
1002
}
1002
{
1000
OTHER
1070
     0
1002
}
1002
{
1000
REACTOR
1002
}
1001
GENIUS_GENOLIS_13
1002
{
1000
ENT
1005
347
1005
346
1005
345
1005
344
1002
}
1001
GENIUS_GENOENT_13
1002
{
1000
MYREF
1005
364
1002
}
1002
{
1000
GRP
1005
0
1002
}
1001
GENIUS_GENOBJ-N-CRS_13
1002
{
1000
OWNER
1000
GEN
1002
}
  0
POINT
  5
365
330
1F
100
AcDbEntity
  8
0
 60
     1
100
AcDbPoint
 10
1458.314767011929
 20
-60.20919011601723
 30
0.0
1001
GENIUS_GENOLIS_13
1002
{
1000
ENT
1005
34C
1005
34B
1005
34A
1005
349
1002
}
1001
GENIUS_GENOENT_13
1002
{
1000
MYREF
1005
365
1002
}
1002
{
1000
GRP
1005
0
1002
}
1001
GENIUS_GENOBJ-N-CRS_13
1002
{
1000
OWNER
1000
GEN
1002
}
1001
GENIUS_GENODEF_13
1002
{
1000
HIER
1070
    10
1002
}
1002
{
1000
MANEDIT
1070
     0
1002
}
1002
{
1000
NOSEL
1070
     0
1002
}
1002
{
1000
BEHIND
1070
     0
1002
}
1002
{
1000
OTHER
1070
     0
1002
}
1002
{
1000
REACTOR
1002
}
  0
POINT
  5
366
330
1F
100
AcDbEntity
  8
0
 60
     1
100
AcDbPoint
 10
1458.314767011929
 20
-60.20919011601723
 30
0.0
1001
GENIUS_GENOBJ-N-CRS_13
1002
{
1000
OWNER
1000
GEN
1002
}
1001
GENIUS_GENODEF_13
1002
{
1000
HIER
1070
    10
1002
}
1002
{
1000
MANEDIT
1070
     0
1002
}
1002
{
1000
NOSEL
1070
     0
1002
}
1002
{
1000
BEHIND
1070
     0
1002
}
1002
{
1000
OTHER
1070
     0
1002
}
1002
{
1000
REACTOR
1002
}
1001
GENIUS_GENOLIS_13
1002
{
1000
ENT
1005
351
1005
350
1005
34F
1005
34E
1002
}
1001
GENIUS_GENOENT_13
1002
{
1000
MYREF
1005
366
1002
}
1002
{
1000
GRP
1005
0
1002
}
  0
POINT
  5
367
330
1F
100
AcDbEntity
  8
0
 60
     1
100
AcDbPoint
 10
547.1695811559023
 20
-60.20919011601723
 30
0.0
1001
GENIUS_GENOBJ-N-CRS_13
1002
{
1000
OWNER
1000
GEN
1002
}
1001
GENIUS_GENODEF_13
1002
{
1000
HIER
1070
    10
1002
}
1002
{
1000
MANEDIT
1070
     0
1002
}
1002
{
1000
NOSEL
1070
     0
1002
}
1002
{
1000
BEHIND
1070
     0
1002
}
1002
{
1000
OTHER
1070
     0
1002
}
1002
{
1000
REACTOR
1002
}
1001
GENIUS_GENOLIS_13
1002
{
1000
ENT
1005
354
1005
355
1005
356
1005
357
1002
}
1001
GENIUS_GENOENT_13
1002
{
1000
MYREF
1005
367
1002
}
1002
{
1000
GRP
1005
0
1002
}
  0
POINT
  5
368
330
1F
100
AcDbEntity
  8
0
 60
     1
100
AcDbPoint
 10
547.1695811559023
 20
-60.20919011601723
 30
0.0
1001
GENIUS_GENOLIS_13
1002
{
1000
ENT
1005
359
1005
35A
1005
35B
1005
35C
1002
}
1001
GENIUS_GENOENT_13
1002
{
1000
MYREF
1005
368
1002
}
1002
{
1000
GRP
1005
0
1002
}
1001
GENIUS_GENOBJ-N-CRS_13
1002
{
1000
OWNER
1000
GEN
1002
}
1001
GENIUS_GENODEF_13
1002
{
1000
HIER
1070
    10
1002
}
1002
{
1000
MANEDIT
1070
     0
1002
}
1002
{
1000
NOSEL
1070
     0
1002
}
1002
{
1000
BEHIND
1070
     0
1002
}
1002
{
1000
OTHER
1070
     0
1002
}
1002
{
1000
REACTOR
1002
}
  0
POINT
  5
369
330
1F
100
AcDbEntity
  8
0
 60
     1
100
AcDbPoint
 10
547.1695811559023
 20
-60.20919011601723
 30
0.0
1001
GENIUS_GENODEF_13
1002
{
1000
HIER
1070
    10
1002
}
1002
{
1000
MANEDIT
1070
     0
1002
}
1002
{
1000
NOSEL
1070
     0
1002
}
1002
{
1000
BEHIND
1070
     0
1002
}
1002
{
1000
OTHER
1070
     0
1002
}
1002
{
1000
REACTOR
1002
}
1001
GENIUS_GENOLIS_13
1002
{
1000
ENT
1005
35E
1005
35F
1005
360
1005
361
1002
}
1001
GENIUS_GENOENT_13
1002
{
1000
MYREF
1005
369
1002
}
1002
{
1000
GRP
1005
0
1002
}
1001
GENIUS_GENOBJ-N-CRS_13
1002
{
1000
OWNER
1000
GEN
1002
}
  0
LWPOLYLINE
  5
1401
330
1F
100
AcDbEntity
  8
AM_VIEWS
100
AcDbPolyline
 90
        4
 70
     1
 43
0.0
 10
0.0
 20
0.0
 10
662.1707778397176
 20
0.0
 10
662.1707778397176
 20
460.8313215362136
 10
0.0
 20
460.8313215362136
1001
GENIUS_GENODEF_13
1002
{
1000
HIER
1070
     0
1002
}
1002
{
1000
MANEDIT
1070
     0
1002
}
1002
{
1000
NOSEL
1070
     0
1002
}
1002
{
1000
BEHIND
1070
     0
1002
}
1002
{
1000
OTHER
1070
     0
1002
}
1002
{
1000
REACTOR
1002
}
1001
GENIUS_GENOBJ-N-SDF_13
1002
{
1000
OWNER
1000
GEN
1002
}
1001
GENIUS_GENSCREG_15
1040
2.0
1040
1.0
1011
0.0
1021
0.0
1031
0.0
1011
662.1707778397176
1021
460.8313215362136
1031
0.0
1070
     2
  0
DIMENSION
  5
1E53
330
1F
100
AcDbEntity
  8
AM_5
100
AcDbDimension
  2
*D18
 10
17.91067916565475
 20
134.5817799410738
 30
0.0
 11
11.41067916565474
 21
224.5817799410739
 31
0.0
 70
    32
 71
     5
 42
180.0
  3
AM_DIN
100
AcDbAlignedDimension
 13
326.9106791656552
 23
314.5817799410738
 33
0.0
 14
101.9106791656552
 24
134.5817799410738
 34
0.0
 50
90.0
100
AcDbRotatedDimension
1001
ACAD
1000
DSTYLE
1002
{
1070
    40
1040
2.0
1070
   271
1070
     1
1002
}
  0
DIMENSION
  5
1E56
330
1F
100
AcDbEntity
  8
AM_5
100
AcDbDimension
  2
*D5
 10
77.91067916565521
 20
265.5817799410739
 30
0.0
 11
71.41067916565517
 21
290.0817799410739
 31
0.0
 70
    32
 71
     5
 42
49.0
  3
AM_DIN
100
AcDbAlignedDimension
 13
326.9106791656552
 23
314.5817799410738
 33
0.0
 14
223.9106791656555
 24
265.5817799410738
 34
0.0
 50
90.0
100
AcDbRotatedDimension
1001
ACAD
1000
DSTYLE
1002
{
1070
    40
1040
2.0
1070
   271
1070
     1
1002
}
  0
DIMENSION
  5
1E57
330
1F
100
AcDbEntity
  8
AM_5
100
AcDbDimension
  2
*D4
 10
57.91067916565521
 20
244.5817799410739
 30
0.0
 11
51.41067916565517
 21
279.5817799410739
 31
0.0
 70
    32
 71
     5
 42
70.0
  3
AM_DIN
100
AcDbAlignedDimension
 13
326.9106791656552
 23
314.5817799410738
 33
0.0
 14
243.9106791656552
 24
244.5817799410738
 34
0.0
 50
90.0
100
AcDbRotatedDimension
1001
ACAD
1000
DSTYLE
1002
{
1070
    40
1040
2.0
1070
   271
1070
     1
1002
}
  0
DIMENSION
  5
1E58
330
1F
100
AcDbEntity
  8
AM_5
100
AcDbDimension
  2
*D3
 10
37.91067916565521
 20
174.5817799410738
 30
0.0
 11
31.41067916565519
 21
244.5817799410739
 31
0.0
 70
    32
 71
     5
 42
140.0
  3
AM_DIN
100
AcDbAlignedDimension
 13
326.9106791656552
 23
314.5817799410738
 33
0.0
 14
153.9106791656552
 24
174.5817799410738
 34
0.0
 50
90.0
100
AcDbRotatedDimension
1001
ACAD
1000
DSTYLE
1002
{
1070
    40
1040
2.0
1070
   271
1070
     1
1002
}
  0
DIMENSION
  5
1E59
330
1F
100
AcDbEntity
  8
AM_5
100
AcDbDimension
  2
*D10
 10
251.9106791656552
 20
90.58177994107371
 30
0.0
 11
301.9106791656552
 21
97.08177994107371
 31
0.0
 70
    32
 71
     5
 42
100.0
  3
AM_DIN
100
AcDbAlignedDimension
 13
351.9106791656552
 23
131.5817799410738
 33
0.0
 14
251.9106791656552
 24
236.5817799410738
 34
0.0
100
AcDbRotatedDimension
1001
ACAD
1000
DSTYLE
1002
{
1070
    40
1040
2.0
1070
   271
1070
     1
1002
}
  0
DIMENSION
  5
1E5A
330
1F
100
AcDbEntity
  8
AM_5
100
AcDbDimension
  2
*D9
 10
231.9106791656555
 20
70.58177994107371
 30
0.0
 11
291.9106791656553
 21
77.08246891745166
 31
0.0
 70
    32
 71
     5
 42
119.9999999999997
  3
AM_DIN
100
AcDbAlignedDimension
 13
351.9106791656552
 23
134.5817799410738
 33
0.0
 14
231.9106791656555
 24
257.5817799410738
 34
0.0
100
AcDbRotatedDimension
1001
ACAD
1000
DSTYLE
1002
{
1070
    40
1040
2.0
1070
   271
1070
     1
1002
}
  0
DIMENSION
  5
1E5B
330
1F
100
AcDbEntity
  8
AM_5
100
AcDbDimension
  2
*D8
 10
161.9106791656552
 20
50.58177994107348
 30
0.0
 11
256.9106791656552
 21
57.08177994107348
 31
0.0
 70
    32
 71
     5
 42
190.0
  3
AM_DIN
100
AcDbAlignedDimension
 13
351.9106791656552
 23
131.5817799410738
 33
0.0
 14
161.9106791656552
 24
166.5817799410738
 34
0.0
100
AcDbRotatedDimension
1001
ACAD
1000
DSTYLE
1002
{
1070
    40
1040
2.0
1070
   271
1070
     1
1002
}
  0
DIMENSION
  5
1E5C
330
1F
100
AcDbEntity
  8
AM_5
100
AcDbDimension
  2
*D7
 10
601.9106791656552
 20
30.58177994107439
 30
0.0
 11
351.9106791656552
 21
37.08177994107439
 31
0.0
 70
    32
 71
     5
 42
500.0
  3
AM_DIN
100
AcDbAlignedDimension
 13
101.9106791656552
 23
134.5817799410738
 33
0.0
 14
601.9106791656552
 24
134.5817799410738
 34
0.0
100
AcDbRotatedDimension
1001
ACAD
1000
DSTYLE
1002
{
1070
    40
1040
2.0
1070
   271
1070
     1
1002
}
  0
DIMENSION
  5
1E5D
330
1F
100
AcDbEntity
  8
AM_5
100
AcDbDimension
  2
*D6
 10
351.9106791656552
 20
110.5817799410739
 30
0.0
 11
321.9106791656552
 21
117.0817799410739
 31
0.0
 70
    32
 71
     5
 42
60.0
  3
AM_DIN
100
AcDbAlignedDimension
 13
291.9106791656552
 23
174.5817799410738
 33
0.0
 14
351.9106791656552
 24
134.5817799410738
 34
0.0
100
AcDbRotatedDimension
1001
ACAD
1000
DSTYLE
1002
{
1070
    40
1040
2.0
1070
   271
1070
     1
1002
}
  0
DIMENSION
  5
1E5E
330
1F
100
AcDbEntity
  8
AM_5
100
AcDbDimension
  2
*D13
 10
468.9561049010626
 20
261.5481102824356
 30
0.0
 11
491.9137416548486
 21
280.1901458643709
 31
0.0
 70
   163
 71
     5
 42
10.00000000000091
  3
AM_DIN$3
100
AcDbDiametricDimension
 15
474.8652534302469
 25
269.615449599711
 35
0.0
 40
0.0
1001
ACAD
1000
DSTYLE
1002
{
1070
    40
1040
2.0
1070
   271
1070
     1
1002
}
  0
DIMENSION
  5
1E5F
330
1F
100
AcDbEntity
  8
AM_5
100
AcDbDimension
  2
*D11
 10
401.9106791656549
 20
204.5817799410739
 30
0.0
 11
424.825858792901
 21
223.5401439298095
 31
0.0
 70
   164
 71
     5
 42
9.999999999999829
  3
AM_DIN$4
100
AcDbRadialDimension
 15
407.8407708406252
 25
212.6337370153787
 35
0.0
 40
0.0
1001
ACAD
1000
DSTYLE
1002
{
1070
    40
1040
2.0
1070
   271
1070
     1
1002
}
  0
DIMENSION
  5
1E60
330
1F
100
AcDbEntity
  8
AM_5
100
AcDbDimension
  2
*D12
 10
435.9106791656552
 20
164.5817799410738
 30
0.0
 11
429.4106791656552
 21
189.5817799410739
 31
0.0
 70
    32
 71
     5
 42
50.0
  3
AM_DIN
100
AcDbAlignedDimension
 13
401.9106791656552
 23
214.5817799410738
 33
0.0
 14
401.9106791656552
 24
164.5817799410738
 34
0.0
 50
90.0
100
AcDbRotatedDimension
1001
ACAD
1000
DSTYLE
1002
{
1070
    40
1040
2.0
1070
   271
1070
     1
1002
}
  0
LWPOLYLINE
  5
1E61
330
1F
100
AcDbEntity
  8
0
100
AcDbPolyline
 90
        8
 70
     1
 43
0.0
 10
301.9106791656552
 20
214.5817799410738
 10
401.9106791656552
 20
214.5817799410738
 42
-0.4142135623730959
 10
411.9106791656552
 20
204.5817799410738
 10
411.9106791656552
 20
174.5817799410738
 42
-0.4142135623730943
 10
401.9106791656552
 20
164.5817799410738
 10
301.9106791656552
 20
164.5817799410738
 42
-0.4142135623730953
 10
291.9106791656552
 20
174.5817799410738
 10
291.9106791656552
 20
204.5817799410738
 42
-0.4142135623730946
1001
GENIUS_GENREC_14
1002
{
1000
PYDIR
1011
291.9106791656552
1021
164.5817799410738
1031
0.0
1002
}
1002
{
1000
PXDIR
1011
411.9106791656552
1021
214.5817799410738
1031
0.0
1002
}
1002
{
1000
PORI
1011
291.9106791656552
1021
214.5817799410738
1031
0.0
1002
}
1002
{
1000
PINS
1011
291.9106791656552
1021
214.5817799410738
1031
0.0
1002
}
1002
{
1000
PINS2
1011
411.9106791656552
1021
164.5817799410738
1031
0.0
1002
}
1002
{
1000
C
1070
     1
1002
}
1001
GENIUS_GENOBJ-N-REC_13
1002
{
1000
OWNER
1000
GEN
1002
}
1001
GENIUS_GENODEF_13
1002
{
1000
HIER
1070
     0
1002
}
1002
{
1000
MANEDIT
1070
     0
1002
}
1002
{
1000
NOSEL
1070
     0
1002
}
1002
{
1000
BEHIND
1070
     0
1002
}
1002
{
1000
OTHER
1070
     0
1002
}
1002
{
1000
REACTOR
1002
}
  0
DIMENSION
  5
1E63
330
1F
100
AcDbEntity
  8
AM_5
100
AcDbDimension
  2
*D14
 10
645.9106791656554
 20
364.5817799410738
 30
0.0
 11
639.4099901892773
 21
249.5817799410739
 31
0.0
 70
    32
 71
     5
 42
230.0
  3
AM_DIN
100
AcDbAlignedDimension
 13
601.9106791656552
 23
134.5817799410738
 33
0.0
 14
601.9106791656552
 24
364.5817799410738
 34
0.0
 50
90.0
100
AcDbRotatedDimension
1001
ACAD
1000
DSTYLE
1002
{
1070
    40
1040
2.0
1070
   271
1070
     1
1002
}
  0
DIMENSION
  5
1E65
330
1F
100
AcDbEntity
  8
AM_5
100
AcDbDimension
  2
*D15
 10
376.9106791656552
 20
366.5817799410738
 30
0.0
 11
351.9106791656552
 21
373.0817799410738
 31
0.0
 70
    32
 71
     5
 42
50.0
  3
AM_DIN
100
AcDbAlignedDimension
 13
326.9106791656552
 23
314.5817799410738
 33
0.0
 14
376.9106791656552
 24
314.5817799410738
 34
0.0
100
AcDbRotatedDimension
1001
ACAD
1000
DSTYLE
1002
{
1070
    40
1040
2.0
1070
   271
1070
     1
1002
}
  0
DIMENSION
  5
1E66
330
1F
100
AcDbEntity
  8
AM_5
100
AcDbDimension
  2
*D16
 10
326.9106791656552
 20
346.5817799410738
 30
0.0
 11
339.4106791656552
 21
353.0824689174518
 31
0.0
 70
    32
 71
     5
 42
25.0
  3
AM_DIN
100
AcDbAlignedDimension
 13
351.9106791656552
 23
317.5817799410738
 33
0.0
 14
326.9106791656552
 24
317.5817799410736
 34
0.0
100
AcDbRotatedDimension
1001
ACAD
1000
DSTYLE
1002
{
1070
    40
1040
2.0
1070
   271
1070
     1
1002
}
  0
DIMENSION
  5
1E67
330
1F
100
AcDbEntity
  8
AM_5
100
AcDbDimension
  2
*D19
 10
289.7712129791796
 20
309.5817799410738
 30
0.0
 11
283.2712129791795
 21
295.0368051942433
 31
0.0
 70
    32
 71
     5
 42
5.0
  3
AM_DIN
100
AcDbAlignedDimension
 13
326.9106791656552
 23
314.5817799410738
 33
0.0
 14
319.9106791656545
 24
309.5817799410738
 34
0.0
 50
90.0
100
AcDbRotatedDimension
1001
ACAD
1000
DSTYLE
1002
{
1070
    40
1040
2.0
1070
   271
1070
     1
1002
}
  0
DIMENSION
  5
1E6A
330
1F
100
AcDbEntity
  8
AM_5
100
AcDbDimension
  2
*D17
 10
351.9106791656552
 20
262.6889902767725
 30
0.0
 11
335.910679559414
 21
269.1896792531505
 31
0.0
 70
    32
 71
     5
 42
31.99999921248241
  3
AM_DIN
100
AcDbAlignedDimension
 13
319.9106799531728
 23
309.5817802854647
 33
0.0
 14
351.9106791656552
 24
288.8545165946825
 34
0.0
100
AcDbRotatedDimension
1001
ACAD
1000
DSTYLE
1002
{
1070
    40
1040
2.0
1070
   271
1070
     1
1002
}
  0
DIMENSION
  5
200E
330
1F
100
AcDbEntity
  8
AM_5
100
AcDbDimension
  2
*D20
 10
464.9106794710213
 20
388.5817799410739
 30
0.0
 11
533.4106793183382
 21
395.081779941074
 31
0.0
 70
    32
 71
     5
 42
136.9999996946338
  3
AM_DIN
100
AcDbAlignedDimension
 13
601.9106791656552
 23
364.5817799410738
 33
0.0
 14
464.9106794710213
 24
364.5817799410738
 34
0.0
100
AcDbRotatedDimension
1001
ACAD
1000
DSTYLE
1002
{
1070
    40
1040
2.0
1070
   271
1070
     1
1002
}
  0
LWPOLYLINE
  5
22E6
330
1F
100
AcDbEntity
  8
AM_3
100
AcDbPolyline
 90
        4
 70
     1
 43
0.0
 10
326.9106791656552
 20
302.5817799410738
 10
376.9106791656552
 20
302.5817799410738
 10
376.9106791656552
 20
314.5817799410738
 10
326.9106791656552
 20
314.5817799410738
1001
GENIUS_GENREC_14
1002
{
1000
PYDIR
1011
326.9106791656552
1021
314.5817799410738
1031
0.0
1002
}
1002
{
1000
PXDIR
1011
376.9106791656552
1021
302.5817799410738
1031
0.0
1002
}
1002
{
1000
PORI
1011
326.9106791656552
1021
302.5817799410738
1031
0.0
1002
}
1002
{
1000
PINS
1011
326.9106791656552
1021
302.5817799410738
1031
0.0
1002
}
1002
{
1000
HVAL
1000
12
1002
}
1002
{
1000
H
1070
     2
1002
}
1002
{
1000
WVAL
1000
50
1002
}
1002
{
1000
W
1070
     2
1002
}
1002
{
1000
C
1070
     1
1002
}
1001
GENIUS_GENOBJ-N-REC_13
1002
{
1000
OWNER
1000
GEN
1002
}
1001
GENIUS_GENODEF_13
1002
{
1000
HIER
1070
     0
1002
}
1002
{
1000
MANEDIT
1070
     0
1002
}
1002
{
1000
NOSEL
1070
     0
1002
}
1002
{
1000
BEHIND
1070
     0
1002
}
1002
{
1000
OTHER
1070
     0
1002
}
1002
{
1000
REACTOR
1002
}
  0
DIMENSION
  5
2CAA
330
1F
100
AcDbEntity
  8
AM_5
100
AcDbDimension
  2
*D21
 10
17.91067916565498
 20
314.5817799410739
 30
0.0
 11
11.41067916565493
 21
339.5817799410738
 31
0.0
 70
    32
 71
     5
 42
49.99999999999994
  3
AM_DIN
100
AcDbAlignedDimension
 13
101.9106791656552
 23
364.5817799410738
 33
0.0
 14
326.9106791656552
 24
314.5817799410738
 34
0.0
 50
90.0
100
AcDbRotatedDimension
1001
ACAD
1000
DSTYLE
1002
{
1070
    40
1040
2.0
1070
   179
1070
     1
1070
   271
1070
     1
1002
}
  0
INSERT
  5
3B16
330
1F
100
AcDbEntity
  8
AM_5
100
AcDbBlockReference
  2
*S25
 10
0.0
 20
0.0
 30
0.0
  0
LWPOLYLINE
  5
4441
102
{ACAD_REACTORS
330
5728
330
6C46
102
}
330
1F
100
AcDbEntity
  8
0
100
AcDbPolyline
 90
       16
 70
     0
 43
0.0
 10
376.9106791656552
 20
314.5817799410738
 10
351.9106791656552
 20
314.5817799410738
 10
326.9106791656552
 20
314.5817799410738
 10
351.9106791656552
 20
314.5817799410738
 10
376.9106791656552
 20
314.5817799410738
 10
383.9106799531728
 20
309.5817802854647
 10
387.9106799531728
 20
309.5817802854647
 10
464.9106794710213
 20
364.5817799410738
 10
601.9106791656552
 20
364.5817799410738
 10
601.9106791656552
 20
134.5817799410738
 10
101.9106791656552
 20
134.5817799410738
 10
101.9106791656552
 20
364.5817799410738
 10
238.9106788602892
 20
364.5817799410738
 10
315.9106788602847
 20
309.5817799410739
 10
319.9106791656552
 20
309.5817802854647
 10
326.9106791656552
 20
314.5817799410738
1001
GENIUS_GENREC_14
1002
{
1000
PYDIR
1011
587.9106791656529
1021
304.5817799410738
1031
0.0
1002
}
1002
{
1000
PXDIR
1011
130.9106791656529
1021
124.5817799410738
1031
0.0
1002
}
1002
{
1000
PORI
1011
630.9106791656529
1021
124.5817799410738
1031
0.0
1002
}
1002
{
1000
PINS
1011
630.9106791656529
1021
124.5817799410738
1031
0.0
1002
}
1002
{
1000
HVAL
1000
180
1002
}
1002
{
1000
H
1070
     2
1002
}
1002
{
1000
WVAL
1000
500
1002
}
1002
{
1000
W
1070
     2
1002
}
1002
{
1000
C
1070
     1
1002
}
1001
GENIUS_GENODEF_13
1002
{
1000
HIER
1070
     0
1002
}
1002
{
1000
MANEDIT
1070
     0
1002
}
1002
{
1000
NOSEL
1070
     0
1002
}
1002
{
1000
BEHIND
1070
     0
1002
}
1002
{
1000
OTHER
1070
     0
1002
}
1002
{
1000
REACTOR
1002
}
1001
GENIUS_GENOBJ-N-REC_13
1002
{
1000
OWNER
1000
GEN
1002
}
  0
DIMENSION
  5
570D
102
{ACAD_XDICTIONARY
360
571C
102
}
102
{ACAD_REACTORS
330
5728
102
}
330
1F
100
AcDbEntity
  8
AM_5
100
AcDbDimension
  2
*D22
 10
315.9106788602847
 20
285.5817799410739
 30
0.0
 11
301.1606788602847
 21
292.0817799410739
 31
0.0
 70
    32
 71
     5
 42
4.000000305370519
  3
AM_DIN
100
AcDbAlignedDimension
 13
319.9106791656552
 23
309.5817802854647
 33
0.0
 14
315.9106788602847
 24
309.5817799410739
 34
0.0
100
AcDbRotatedDimension
1001
ACAD
1000
DSTYLE
1002
{
1070
    40
1040
2.0
1070
   271
1070
     1
1002
}
  0
DIMENSION
  5
6B44
330
1F
100
AcDbEntity
  8
AM_5
100
AcDbDimension
  2
*D23
 10
319.9106791656552
 20
366.5817799410738
 30
0.0
 11
305.5106791656552
 21
373.0817799410738
 31
0.0
 70
    32
 71
     5
 42
7.0
  3
AM_DIN$0
100
AcDbAlignedDimension
 13
326.9106791656552
 23
314.5817799410738
 33
0.0
 14
319.9106791656552
 24
309.5817802854647
 34
0.0
 50
0.0000000000000114
100
AcDbRotatedDimension
1001
ACAD
1000
DSTYLE
1002
{
1070
    40
1040
2.0
1070
   271
1070
     1
1002
}
  0
DIMENSION
  5
6C36
102
{ACAD_XDICTIONARY
360
6C45
102
}
102
{ACAD_REACTORS
330
6C46
102
}
330
1F
100
AcDbEntity
  8
AM_5
100
AcDbDimension
  2
*D24
 10
440.2850142914185
 20
314.5817799410738
 30
0.0
 11
433.7850142914184
 21
300.1817799410739
 31
0.0
 70
    32
 71
     5
 42
8.000000000000056
  3
AM_DIN$0
100
AcDbAlignedDimension
 13
401.0675826591862
 23
322.5817799410738
 33
0.0
 14
376.9106791656552
 24
314.5817799410738
 34
0.0
 50
90.00000000000003
100
AcDbRotatedDimension
1001
ACAD
1000
DSTYLE
1002
{
1070
    40
1040
2.0
1070
   271
1070
     1
1002
}
  0
VIEWPORT
  5
2E6B
102
{ACAD_XDICTIONARY
360
6F71
102
}
330
2E6A
100
AcDbEntity
 67
     1
  8
0
100
AcDbViewport
 10
210.0000029338453
 20
148.5000020746477
 30
0.0
 40
656.3474439879134
 41
299.8787142759811
 68
     1
 69
     1
 12
210.0000029338453
 22
148.5000020746477
 13
0.0
 23
0.0
 14
2.5
 24
2.5
 15
10.0
 25
10.0
 16
0.0
 26
0.0
 36
1.0
 17
0.0
 27
0.0
 37
0.0
 42
50.0
 43
0.0
 44
0.0
 45
299.8787142759811
 50
0.0
 51
0.0
 72
   100
 90
    32800
  1

281
     0
 71
     1
 74
     0
110
0.0
120
0.0
130
0.0
111
1.0
121
0.0
131
0.0
112
0.0
122
1.0
132
0.0
 79
     0
146
0.0
  0
INSERT
  5
2E6C
330
2E6A
100
AcDbEntity
 67
     1
  8
AM_0
100
AcDbBlockReference
  2
DIN-A3
 10
0.0
 20
0.0
 30
0.0
1001
GENIUS_GENOREF_13
1005
2E76
1001
GENIUS_GENODEF_13
1002
{
1000
HIER
1070
     0
1002
}
1002
{
1000
MANEDIT
1070
     0
1002
}
1002
{
1000
NOSEL
1070
     0
1002
}
1002
{
1000
BEHIND
1070
     0
1002
}
1002
{
1000
OTHER
1070
     0
1002
}
1002
{
1000
REACTOR
1002
}
1001
GENIUS_GENOBJ-N-SDF_13
1002
{
1000
OWNER
1000
GEN
1002
}
1001
GENIUS_GENSCREG_15
1040
1.0
1040
1.0
1011
0.0
1021
0.0
1031
0.0
1011
420.0000000000001
1021
297.0
1031
0.0
1070
     3
  0
POINT
  5
2E76
330
2E6A
100
AcDbEntity
 67
     1
  8
0
 60
     1
100
AcDbPoint
 10
0.0
 20
0.0
 30
0.0
1001
GENIUS_GENOENT_13
1002
{
1000
MYREF
1005
2E76
1002
}
1002
{
1000
GRP
1005
0
1002
}
1001
GENIUS_GENOBJ-N-TIT_13
1002
{
1000
OWNER
1000
GEN
1002
}
1001
GENIUS_GENOLIS_13
1002
{
1000
ENT
1005
2E6D
1005
2E6C
1005
0
1002
}
1001
GENIUS_GENTITLE_13
1002
{
1000
BORDER
1000
DIN-A3
1002
}
1002
{
1000
TITLE
1000
Wb_kopf_k
1002
}
1002
{
1000
SCALE
1000
1:1
1002
}
1002
{
1000
TITLESTD
1000
DIN
1002
}
1002
{
1000
HRA
1005
2E6C
1002
}
1002
{
1000
HTIT
1005
2E6D
1002
}
1002
{
1000
GENIUSID
1005
2E76
1002
}
1002
{
1000
UNCHG
1002
{
1000
GEN-TITLE-SIZ
1000
GEN-TITLE-SCA
1002
}
1002
}
1001
GENIUS_GENODEF_13
1002
{
1000
HIER
1070
     1
1002
}
1002
{
1000
MANEDIT
1070
     1
1002
}
1002
{
1000
NOSEL
1070
     0
1002
}
1002
{
1000
BEHIND
1070
     0
1002
}
1002
{
1000
OTHER
1070
     0
1002
}
1002
{
1000
REACTOR
1002
}
  0
VIEWPORT
  5
2E77
102
{ACAD_XDICTIONARY
360
6F73
102
}
330
2E6A
100
AcDbEntity
 67
     1
  8
AM_VIEWS
100
AcDbViewport
 10
218.3243046372993
 20
157.7039128075461
 30
0.0
 40
331.0853889198588
 41
230.4156607681068
 68
     2
 69
     2
 12
0.0
 22
0.0
 13
0.0
 23
0.0
 14
2.5
 24
2.5
 15
10.0
 25
10.0
 16
0.0
 26
0.0
 36
1.0
 17
331.0853889198588
 27
230.4156607681068
 37
0.0
 42
50.0
 43
0.0
 44
0.0
 45
460.8313215362136
 50
0.0
 51
0.0
 72
   100
 90
    32864
  1

281
     0
 71
     1
 74
     0
110
0.0
120
0.0
130
0.0
111
1.0
121
0.0
131
0.0
112
0.0
122
1.0
132
0.0
 79
     0
146
0.0
1001
GENIUS_GENOBJ-N-SDF_13
1002
{
1000
OWNER
1000
GEN
1002
}
1001
GENIUS_GENODEF_13
1002
{
1000
HIER
1070
     0
1002
}
1002
{
1000
MANEDIT
1070
     0
1002
}
1002
{
1000
NOSEL
1070
     0
1002
}
1002
{
1000
BEHIND
1070
     0
1002
}
1002
{
1000
OTHER
1070
     0
1002
}
1002
{
1000
REACTOR
1002
}
1001
GENIUS_GENSCREG_15
1000
PF
1040
2.0
1000
DF
1040
1.0
1000
MIN
1011
52.78161017736988
1021
42.49608242349268
1031
0.0
1000
MAX
1011
383.8669990972287
1021
272.9117431915995
1031
0.0
1000
FLAGS
1070
     2
1000
SDF
1005
1401
  0
INSERT
  5
5A18
330
2E6A
100
AcDbEntity
 67
     1
  8
AM_6
100
AcDbBlockReference
 66
     1
  2
WB_KOPF_K
 10
409.9999999999999
 20
10.0
 30
0.0
  0
ATTRIB
  5
5A19
330
5A18
100
AcDbEntity
 67
     1
  8
RAHM2
100
AcDbText
 10
408.9999999999999
 20
12.02150323148919
 30
0.0
 40
3.047999999999999
  1

 41
0.75
 72
     2
 11
408.9999999999999
 21
12.02150323148919
 31
0.0
100
AcDbAttribute
  2
ERSATZ_DURCH
 70
     0
  0
ATTRIB
  5
5A1A
330
5A18
100
AcDbEntity
 67
     1
  8
RAHM2
100
AcDbText
 10
367.7800000000003
 20
12.02150323148919
 30
0.0
 40
3.047999999999999
  1

 41
0.75
 72
     2
 11
367.7800000000003
 21
12.02150323148919
 31
0.0
100
AcDbAttribute
  2
ERSATZ
 70
     0
  0
ATTRIB
  5
5A1B
330
5A18
100
AcDbEntity
 67
     1
  8
RAHM2
100
AcDbText
 10
326.56
 20
12.02150323148919
 30
0.0
 40
3.047999999999999
  1

 41
0.75
 72
     2
 11
326.56
 21
12.02150323148919
 31
0.0
100
AcDbAttribute
  2
URSPRUNG
 70
     0
  0
ATTRIB
  5
5A1C
330
5A18
100
AcDbEntity
 67
     1
  8
AM_BOR
 62
     1
370
    25
100
AcDbText
 10
272.7080575966469
 20
11.0
 30
0.0
 40
3.047999999999999
  1

 41
0.75
 72
     1
 11
272.7080575966469
 21
11.0
 31
0.0
100
AcDbAttribute
  2
GEN-TITLE-DWG{8.92}
 70
     0
  0
ATTRIB
  5
5A1D
330
5A18
100
AcDbEntity
 67
     1
  8
AM_BOR
 62
     1
370
    25
100
AcDbText
 10
240.5600000000001
 20
11.0
 30
0.0
 40
3.047999999999999
  1

 41
0.75
 72
     1
 11
240.5600000000001
 21
11.0
 31
0.0
100
AcDbAttribute
  2
GEN-TITLE-SIZ{2.46}
 70
     0
  0
ATTRIB
  5
5A1E
330
5A18
100
AcDbEntity
 67
     1
  8
AM_BOR
100
AcDbText
 10
393.1165969515305
 20
17.35775902156095
 30
0.0
 40
6.349999999999999
  1
-
 41
0.75
100
AcDbAttribute
  2
REVISION
 70
     0
  0
ATTRIB
  5
5A1F
330
5A18
100
AcDbEntity
 67
     1
  8
AM_BOR
100
AcDbText
 10
293.2082076876984
 20
21.09638664867274
 30
0.0
 40
7.0
  1
FKTT-Einschnitt-1gl-180mm
 41
0.75
100
AcDbAttribute
  2
GEN-TITLE-NR
 70
     0
  0
SEQEND
  5
5A20
330
5A18
100
AcDbEntity
 67
     1
  8
AM_6
  0
TEXT
  5
6E34
330
2E6A
100
AcDbEntity
 67
     1
  8
0
100
AcDbText
 10
191.854832501238
 20
22.29189779562844
 30
0.0
 40
5.0
  1
RBS 01/09
100
AcDbText
  0
ENDSEC
  0
SECTION
  2
OBJECTS
  0
DICTIONARY
  5
C
330
0
100
AcDbDictionary
281
     1
  3
ACAD_COLOR
350
668E
  3
ACAD_GROUP
350
D
  3
ACAD_LAYOUT
350
1A
  3
ACAD_MATERIAL
350
668D
  3
ACAD_MLINESTYLE
350
17
  3
ACAD_PLOTSETTINGS
350
19
  3
ACAD_PLOTSTYLENAME
350
E
  3
ACAD_TABLESTYLE
350
668F
  3
ACDBHEADERROUNDTRIPXREC
350
6F6E
  3
AcDbVariableDictionary
350
33A
  3
AcmDictionary
350
45
  3
AMG
350
41
  3
AMGSNAPSETTINGS
350
85
  3
DWGPROPS
350
6F6D
  0
DICTIONARY
  5
6886
330
2
100
AcDbDictionary
280
     1
281
     1
  3
ACAD_LAYERSTATES
360
6887
  3
AMLAYER_GROUPCOLORS
360
6AFD
  0
DICTIONARY
  5
332
330
1F
100
AcDbDictionary
280
     1
281
     1
  3
ACAD_SORTENTS
360
6B7D
  0
DICTIONARY
  5
571C
330
570D
100
AcDbDictionary
280
     1
281
     1
  3
ACAD_DIMASSOC
360
5728
  0
DICTIONARY
  5
6C45
330
6C36
100
AcDbDictionary
280
     1
281
     1
  3
ACAD_DIMASSOC
360
6C46
  0
DICTIONARY
  5
6F71
330
2E6B
100
AcDbDictionary
280
     1
281
     1
  3
ACAD_XREC_ROUNDTRIP
360
6F72
  0
DICTIONARY
  5
6F73
330
2E77
100
AcDbDictionary
280
     1
281
     1
  3
ACAD_XREC_ROUNDTRIP
360
6F74
  0
DICTIONARY
  5
668E
102
{ACAD_REACTORS
330
C
102
}
330
C
100
AcDbDictionary
281
     1
  0
DICTIONARY
  5
D
102
{ACAD_REACTORS
330
C
102
}
330
C
100
AcDbDictionary
281
     1
  0
DICTIONARY
  5
1A
102
{ACAD_REACTORS
330
C
102
}
330
C
100
AcDbDictionary
281
     1
  3
FKTT-Einschnitt-1gl-180mm
350
2E7A
  3
Model
350
22
  0
DICTIONARY
  5
668D
102
{ACAD_REACTORS
330
C
102
}
330
C
100
AcDbDictionary
281
     1
  0
DICTIONARY
  5
17
102
{ACAD_REACTORS
330
C
102
}
330
C
100
AcDbDictionary
281
     1
  3
Standard
350
18
  0
DICTIONARY
  5
19
102
{ACAD_REACTORS
330
C
102
}
330
C
100
AcDbDictionary
281
     1
  0
ACDBDICTIONARYWDFLT
  5
E
102
{ACAD_REACTORS
330
C
102
}
330
C
100
AcDbDictionary
281
     1
  3
Normal
350
F
100
AcDbDictionaryWithDefault
340
F
  0
DICTIONARY
  5
668F
102
{ACAD_REACTORS
330
C
102
}
330
C
100
AcDbDictionary
281
     1
  3
Standard
350
6690
  0
DICTIONARY
  5
6F6E
102
{ACAD_REACTORS
330
C
102
}
330
C
100
AcDbDictionary
281
     1
  0
DICTIONARY
  5
33A
102
{ACAD_REACTORS
330
C
102
}
330
C
100
AcDbDictionary
281
     1
  3
CTABLESTYLE
350
67B3
  3
DIMASSOC
350
33E
  3
HIDETEXT
350
33D
  3
INDEXCTL
350
33C
  3
PROJECTNAME
350
67B4
  3
SORTENTS
350
33B
  0
DICTIONARY
  5
45
102
{ACAD_REACTORS
330
C
102
}
330
C
100
AcDbDictionary
281
     1
  3
AcmStdDictionary
350
4A
  3
AMDTSECTSYM_ARROWCOLOR
350
66F6
  0
DICTIONARY
  5
41
102
{ACAD_REACTORS
330
C
102
}
330
C
100
AcDbDictionary
281
     1
  3
AcMgSettings
350
6EF4
  0
DICTIONARY
  5
85
102
{ACAD_REACTORS
330
C
102
}
330
C
100
AcDbDictionary
281
     1
  0
XRECORD
  5
6F6D
102
{ACAD_REACTORS
330
C
102
}
330
C
100
AcDbXrecord
280
     1
  1
DWGPROPS COOKIE
  2

  3

  4

  6

  7

  8

  9

300
AmdtFileType=84
301
=
302
=
303
=
304
=
305
=
306
=
307
=
308
=
309
=
 40
1.098220856481481
 41
2453798.966575521
 42
2454844.731434271
  1

 90
        1
  0
DICTIONARY
  5
6887
102
{ACAD_REACTORS
330
6886
102
}
330
6886
100
AcDbDictionary
281
     1
  0
DICTIONARY
  5
6AFD
102
{ACAD_REACTORS
330
6886
102
}
330
6886
100
AcDbDictionary
280
     1
281
     1
  0
SORTENTSTABLE
  5
6B7D
102
{ACAD_REACTORS
330
332
102
}
330
332
100
AcDbSortentsTable
330
1F
331
34F
  5
34F
331
1E60
  5
1E60
331
1E59
  5
1E59
331
353
  5
353
331
362
  5
362
331
1E5D
  5
1E5D
331
357
  5
357
331
35B
  5
35B
331
35F
  5
35F
331
346
  5
346
331
3B16
  5
3B16
331
34A
  5
34A
331
34E
  5
34E
331
352
  5
352
331
1E58
  5
1E58
331
1E63
  5
1E63
331
361
  5
361
331
356
  5
356
331
1E5C
  5
1E5C
331
1E67
  5
1E67
331
35A
  5
35A
331
570D
  5
570D
331
35E
  5
35E
331
2CAA
  5
2CAA
331
345
  5
345
331
200E
  5
200E
331
349
  5
349
331
6B44
  5
6B44
331
34D
  5
34D
331
1E53
  5
1E53
331
4441
  5
4441
331
351
  5
351
331
1E57
  5
1E57
331
360
  5
360
331
355
  5
355
331
1E5B
  5
1E5B
331
1E66
  5
1E66
331
22E6
  5
22E6
331
359
  5
359
331
1E5F
  5
1E5F
331
1E6A
  5
1E6A
331
35D
  5
35D
331
344
  5
344
331
348
  5
348
331
34C
  5
34C
331
1E61
  5
1E61
331
1E56
  5
1E56
331
350
  5
350
331
1E65
  5
1E65
331
1E5A
  5
1E5A
331
354
  5
354
331
358
  5
358
331
1E5E
  5
1E5E
331
363
  5
363
331
35C
  5
35C
331
1401
  5
1401
331
347
  5
347
331
34B
  5
34B
  0
DIMASSOC
  5
5728
102
{ACAD_REACTORS
330
571C
102
}
330
571C
100
AcDbDimAssoc
330
570D
 90
        3
 70
     0
 71
     0
  1
AcDbOsnapPointRef
 72
     1
331
4441
 73
     2
 91
       14
 40
0.0
 10
0.0
 20
0.0
 30
0.0
 75
     0
  1
AcDbOsnapPointRef
 72
     1
331
4441
 73
     2
 91
       13
 40
0.0
 10
0.0
 20
0.0
 30
0.0
 75
     0
  0
DIMASSOC
  5
6C46
102
{ACAD_REACTORS
330
6C45
102
}
330
6C45
100
AcDbDimAssoc
330
6C36
 90
        3
 70
     0
 71
     0
  1
AcDbOsnapPointRef
 72
     1
331
362
 73
     0
 91
        0
 40
0.0
 10
0.0
 20
0.0
 30
2.000000000000000E+50
 75
     0
  1
AcDbOsnapPointRef
 72
    13
331
4441
 73
     2
 91
        1
 40
0.0
 10
0.0
 20
0.0
 30
2.000000000000000E+50
 75
     0
  0
XRECORD
  5
6F72
102
{ACAD_REACTORS
330
6F71
102
}
330
6F71
100
AcDbXrecord
280
     1
102
SHADEPLOT
 70
     0
  0
XRECORD
  5
6F74
102
{ACAD_REACTORS
330
6F73
102
}
330
6F73
100
AcDbXrecord
280
     1
102
SHADEPLOT
 70
     0
  0
LAYOUT
  5
2E7A
102
{ACAD_XDICTIONARY
360
68BF
102
}
102
{ACAD_REACTORS
330
1A
102
}
330
1A
100
AcDbPlotSettings
  1

  2
PS2TIFF.pc3
  4
UserDefinedMetric (420.00 x 297.00MM)
  6
AM_VIEW1
 40
0.0
 41
0.0
 42
0.0
 43
0.0
 44
420.0
 45
297.0
 46
0.0
 47
0.0
 48
0.0
 49
0.0
140
420.0
141
297.0
142
1.0
143
1.0
 70
   164
 72
     1
 73
     0
 74
     4
  7
PoPa-0.ctb
 75
     0
147
0.6767676767676769
148
0.0
149
0.0
100
AcDbLayout
  1
FKTT-Einschnitt-1gl-180mm
 70
     1
 71
     1
 10
0.0
 20
0.0
 11
420.0
 21
297.0
 12
0.0
 22
0.0
 32
0.0
 14
-0.0064041928748111
 24
-0.004528679247187
 34
-0.0000000000112498
 15
420.0064100605656
 25
297.0045328285427
 35
0.0000000000002956
146
0.0
 13
0.0
 23
0.0
 33
0.0
 16
1.0
 26
0.0
 36
0.0
 17
0.0
 27
1.0
 37
0.0
 76
     0
330
2E6A
331
2E6B
1001
ACAD_PSEXT
1000
PS2TIFF.pc3
1000
PostScript-Level 1
1000
AutoSpool
1000
TIFF via PostScript
1070
     0
  0
LAYOUT
  5
22
102
{ACAD_XDICTIONARY
360
6F6F
102
}
102
{ACAD_REACTORS
330
1A
102
}
330
1A
100
AcDbPlotSettings
  1

  2
PS2PDF.pc3
  4
UserDefinedMetric (420.00 x 297.00MM)
  6

 40
0.0
 41
0.0
 42
0.0
 43
0.0
 44
420.0
 45
297.0
 46
5.528292653219523
 47
100.8854494786622
 48
3913.687913903809
 49
2558.303864167426
140
8003.122060839418
141
3510.594874594181
142
1.0
143
10.0
 70
 11428
 72
     1
 73
     0
 74
     4
  7
PoPa-0.ctb
 75
     0
147
1.0
148
-3913.687913903809
149
-2558.303864167426
100
AcDbLayout
  1
Model
 70
     1
 71
     0
 10
0.0
 20
0.0
 11
12.0
 21
9.0
 12
0.0
 22
0.0
 32
0.0
 14
0.0
 24
0.0
 34
0.0
 15
0.0
 25
0.0
 35
0.0
146
0.0
 13
0.0
 23
0.0
 33
0.0
 16
1.0
 26
0.0
 36
0.0
 17
0.0
 27
1.0
 37
0.0
 76
     0
330
1F
1001
ACAD_PSEXT
1000
Laserdrucker.pc3
1000
PostScript-Level 1
1000
AutoSpool
1000
Laserdrucker PostScript
1070
     0
  0
MLINESTYLE
  5
18
102
{ACAD_REACTORS
330
17
102
}
330
17
100
AcDbMlineStyle
  2
STANDARD
 70
     0
  3

 62
   256
 51
90.0
 52
90.0
 71
     2
 49
0.5
 62
   256
  6
BYLAYER
 49
-0.5
 62
   256
  6
BYLAYER
  0
ACDBPLACEHOLDER
  5
F
102
{ACAD_REACTORS
330
E
102
}
330
E
  0
TABLESTYLE
  5
6690
102
{ACAD_REACTORS
330
668F
102
}
330
668F
100
AcDbTableStyle
  3
Standard
 70
     0
 71
     0
 40
1.5
 41
1.5
280
     0
281
     0
  7
STANDARD
140
4.5
170
     2
 62
     0
 63
     7
283
     0
274
    -2
284
     1
 64
     0
275
    -2
285
     1
 65
     0
276
    -2
286
     1
 66
     0
277
    -2
287
     1
 67
     0
278
    -2
288
     1
 68
     0
279
    -2
289
     1
 69
     0
  7
STANDARD
140
6.0
170
     5
 62
     0
 63
     7
283
     0
274
    -2
284
     1
 64
     0
275
    -2
285
     1
 65
     0
276
    -2
286
     1
 66
     0
277
    -2
287
     1
 67
     0
278
    -2
288
     1
 68
     0
279
    -2
289
     1
 69
     0
  7
STANDARD
140
4.5
170
     5
 62
     0
 63
     7
283
     0
274
    -2
284
     1
 64
     0
275
    -2
285
     1
 65
     0
276
    -2
286
     1
 66
     0
277
    -2
287
     1
 67
     0
278
    -2
288
     1
 68
     0
279
    -2
289
     1
 69
     0
  0
DICTIONARYVAR
  5
67B3
102
{ACAD_REACTORS
330
33A
102
}
330
33A
100
DictionaryVariables
280
     0
  1
STANDARD
  0
DICTIONARYVAR
  5
33E
102
{ACAD_REACTORS
330
33A
102
}
330
33A
100
DictionaryVariables
280
     0
  1
2
  0
DICTIONARYVAR
  5
33D
102
{ACAD_REACTORS
330
33A
102
}
330
33A
100
DictionaryVariables
280
     0
  1
1
  0
DICTIONARYVAR
  5
33C
102
{ACAD_REACTORS
330
33A
102
}
330
33A
100
DictionaryVariables
280
     0
  1
0
  0
DICTIONARYVAR
  5
67B4
102
{ACAD_REACTORS
330
33A
102
}
330
33A
100
DictionaryVariables
280
     0
  1

  0
DICTIONARYVAR
  5
33B
102
{ACAD_REACTORS
330
33A
102
}
330
33A
100
DictionaryVariables
280
     0
  1
33
  0
DICTIONARY
  5
4A
102
{ACAD_REACTORS
330
45
102
}
330
45
100
AcDbDictionary
281
     1
  0
XRECORD
  5
66F6
102
{ACAD_REACTORS
330
45
102
}
330
45
100
AcDbXrecord
280
     1
 90
-1023410169
  0
DICTIONARY
  5
6EF4
102
{ACAD_REACTORS
330
41
102
}
330
41
100
AcDbDictionary
281
     1
  3
DWGSETTINGS
350
6EF5
  3
TRANSSETTINGS
350
6EF6
  0
DICTIONARY
  5
68BF
330
2E7A
100
AcDbDictionary
280
     1
281
     1
  3
ACAD_XREC_ROUNDTRIP
360
6F75
  3
ADSK_XREC_LAYOUTTHUMBNAIL
360
68C0
  0
DICTIONARY
  5
6F6F
330
22
100
AcDbDictionary
280
     1
281
     1
  3
ACAD_XREC_ROUNDTRIP
360
6F70
  0
XRECORD
  5
6F75
102
{ACAD_REACTORS
330
68BF
102
}
330
68BF
100
AcDbXrecord
280
     1
102
SHADEPLOT
 70
     1
102
SHADEPLOTRESLEVEL
 70
     2
102
SHADEPLOTCUSTOMDPI
 70
   300
  0
XRECORD
  5
68C0
102
{ACAD_REACTORS
330
68BF
102
}
330
68BF
100
AcDbXrecord
280
     1
310
28000000B40000007F00000001000800000000004C590000000000000000000000010000000000000000000000000000FFFFFF000000000000000000000000000000000000000000000000000000000000000000330000006600000099000000CC000000FF00000000330000333300006633000099330000CC330000FF3300
310
0000660000336600006666000099660000CC660000FF66000000990000339900006699000099990000CC990000FF99000000CC000033CC000066CC000099CC0000CCCC0000FFCC000000FF000033FF000066FF000099FF0000CCFF0000FFFF000000003300330033006600330099003300CC003300FF003300003333003333
310
33006633330099333300CC333300FF33330000663300336633006666330099663300CC663300FF66330000993300339933006699330099993300CC993300FF99330000CC330033CC330066CC330099CC3300CCCC3300FFCC330000FF330033FF330066FF330099FF3300CCFF3300FFFF330000006600330066006600660099
310
006600CC006600FF00660000336600333366006633660099336600CC336600FF33660000666600336666006666660099666600CC666600FF66660000996600339966006699660099996600CC996600FF99660000CC660033CC660066CC660099CC6600CCCC6600FFCC660000FF660033FF660066FF660099FF6600CCFF6600
310
FFFF660000009900330099006600990099009900CC009900FF00990000339900333399006633990099339900CC339900FF33990000669900336699006666990099669900CC669900FF66990000999900339999006699990099999900CC999900FF99990000CC990033CC990066CC990099CC9900CCCC9900FFCC990000FF99
310
0033FF990066FF990099FF9900CCFF9900FFFF99000000CC003300CC006600CC009900CC00CC00CC00FF00CC000033CC003333CC006633CC009933CC00CC33CC00FF33CC000066CC003366CC006666CC009966CC00CC66CC00FF66CC000099CC003399CC006699CC009999CC00CC99CC00FF99CC0000CCCC0033CCCC0066CC
310
CC0099CCCC00CCCCCC00FFCCCC0000FFCC0033FFCC0066FFCC0099FFCC00CCFFCC00FFFFCC000000FF003300FF006600FF009900FF00CC00FF00FF00FF000033FF003333FF006633FF009933FF00CC33FF00FF33FF000066FF003366FF006666FF009966FF00CC66FF00FF66FF000099FF003399FF006699FF009999FF00CC
310
99FF00FF99FF0000CCFF0033CCFF0066CCFF0099CCFF00CCCCFF00FFCCFF0000FFFF0033FFFF0066FFFF0099FFFF00CCFFFF00FFFFFF00000000000D0D0D001A1A1A00282828003535350043434300505050005D5D5D006B6B6B00787878008686860093939300A1A1A100AEAEAE00BBBBBB00C9C9C900D6D6D600E4E4E400
310
F1F1F100FFFFFF0000000000000000000000000000000000000000000000000000000000000000000000000000000000BEBEBEBEBEBEBEBEBEBEBEBEBEBEBEBEBEBEBEBEBEBEBEBEBEBEBEBEBEBEBEBEBEBEBEBEBEBEBEBEBEBEBEBEBEBEBEBEBEBEBEBEBEBEBEBEBEBEBEBEBEBEBEBEBEBEBEBEBEBEBEBEBEBEBEBEBEBEBE
310
BEBEBEBEBEBEBEBEBEBEBEBEBEBEBEBEBEBEBEBEBEBEBEBEBEBEBEBEBEBEBEBEBEBEBEBEBEBEBEBEBEBEBEBEBEBEBEBEBEBEBEBEBEBEBEBEBEBEBEBEBEBEBEBEBEBEBEBEBEBEBEBEBEBEBEBEBEBEBEBEBEBEBEBEBEBEBEBEBEBEBEBEBEBEBEBEBEBEBEF5EFBEE2E2E2E2E2E2E2E2E2E2E2E2E2E2E2E2E2E2E2E2E2E2E2E2E2
310
E2E2E2E2E2E2E2E2E2E2E2E2E2E2E2E2E2E2E2E2E2E2E2E2E2E2E2BEE2E2E2E2E2E2E2E2E2E2E2E2E2E2E2E2E2E2E2E2E2E2E2E2E2E2E2E2E2E2E2E2E2E2E2E2E2E2E2E2E2E2E2BEE2E2E2E2E2E2E2E2E2E2E2E2E2E2E2E2E2E2E2E2E2E2E2E2E2E2E2E2E2E2E2E2E2E2E2E2E2E2E2E2E2E2E2E2E2E2E2E2E2E2E2E2E2E2E2
310
E2E2E2E2E2E2E2E2E2E2E2E2E2E2E2E2E2E2E2E2E2E2E2E2BEF5EFBEE2F5F5F5F5F5F5F5F5F5F5F5F5F5F5F5F5F5F5F5F5F5F5F5F5F5F5F5F5F5F5F5F5F5F5F5F5F5F5F5F5F5F5F5F5F5F5F5F5F5F5F5BEF5F5F5F5F5F5F5F5F5F5F5F5F5F5F5F5F5F5F5F5F5F5F5F5F5F5F5F5F5F5F5F5F5F5F5DCF5F5F5F5F5F5F5F5F5F5
310
F5F5F5F5F5F5F5F5F5F5BEF5F5F5F5F5F5F5F5F5F5F5F5F5F5F5F5F5F5F5F5BEF5F5F5F5F5F5F5F5F5F5F5F5F5F5F5F5F5F5F5F5BEF5F5F5F5F5F5F5F5F5F5F5F5F5F5F5F5F5F5F5F5F5F5F5E2BEF5EFBEE2F5E2E2E2E2E2E2E2E2E2E2E2BEE2E2E2E2E2E2E2E2E2E2BEE2E2E2E2E2E2E2E2E2BEBEE2E2E2E2E2E2E2E2E2BE
310
E2E2E2E2E2E2E2E2E2BEBEE2E2E2E2E2E2E2E2E2BEE2E2E2E2E2E2E2E2E2E2BEE2E2E2E2E2E2E2E2E2E2DCE2E2E2E2E2E2E2E2E2BEE2E2E2E2E2E2E2E2E2E2BEE2E2E2E2E2E2E2E2E2BEBEE2E2E2E2E2E2E2E2E2BEE2E2E2E2E2E2E2E2E2E2BEE2E2E2E2E2E2E2E2E2BEE2E2E2E2E2E2E2E2E2BEBEE2E2E2E2E2E2E2E2E2E2
310
E2F5E2BEF5EFBEE2F5E2BEBEBEBEBEBEBEBEBEBEBEBEBEBEBEBEBEBEBEBEBEBEBEBEBEBEBEBEBEBEBEBEBEBEBEBEBEBEBEBEBEBEBEBEBEBEBEBEBEBEBEBEBEBEBEBEBEBEBEBEBEBEBEBEBEBEBEBEBEBEBEBEBEBEBEBEBEBEBEBEBEBEBEBEBEDCBEBEBEBEBEBEBEBEBEBEBEBEBEBEBEBEBEBEBEBEBEBEBEBEBEBEBEBEBEBEBE
310
BEBEBEBEBEBEBEBEBEBEBEBEBEBEBEBEBEBEBEBEBEBEBEBEBEBEBEBEBEBEBEBEBEBEBEBEBEBEBEBEBEBEBEBEBEBEBEBEBEBEBEBEBEE2F5E2BEF5EFBEE2F5E2BEE2E2E2E2E2E2E2E2E2E2E2E2E2E2E2E2E2E2E2E2E2E2E2E2E2E2E2E2E2E2E2E2E2E2E2E2E2E2E2E2E2E2E2E2E2E2E2E2E2E2E2E2E2E2E2E2E2E2E2E2E2E2E2
310
E2E2E2E2E2E2E2E2E2E2E2E2E2E2E2E2E2E2E2E2E2E2E2E2E2E2E2E2BEBEBEBEE2E2E2BEBEBEBEBEE2E2E2E2E2E2E2E2E2E2E2E2E2BEBEBEBEE2E2E2E2E2E2E2E2E2E2E2E2E2BEBEBEBEBEBEBEBEBEE2E2E2E2E2E2E2E2E2BEBEBEBEBEBEBEBEE2E2E2E2E2E2E2E2E2BEE2F5E2BEF5EFBEE2F5E2BEE2E2E2E2E2E2E2E2E2E2
310
E2E2E2E2E2E2E2E2E2E2E2E2E2E2E2E2E2E2E2E2E2E2E2E2E2E2E2E2E2E2E2E2E2E2E2E2E2E2E2E2E2E2E2E2E2E2E2E2E2E2E2E2E2E2E2E2E2E2E2E2E2E2E2E2E2E2E2E2E2E2E2E2E2E2E2E2E2E2E2E2E2BEBEBEBEE2E2E2BEBEBEBEBEE2E2E2E2E2E2E2E2E2E2E2E2E2BEBEBEBEBEE2E2E2E2E2E2E2E2E2E2E2E2BEBEBEBE
310
BEBEE2BEE2E2E2E2E2E2E2E2E2E2BEBEBEBEBEBEBEBEE2E2E2E2E2E2E2E2E2BEE2F5E2BEF5EFBEE2F5E2BEE2E2E2E2E2E2E2E2E2E2E2E2E2E2E2E2E2E2E2E2E2E2E2E2E2E2E2E2E2E2E2E2E2E2E2E2E2E2E2E2E2E2E2E2E2E2E2E2E2E2E2E2E2E2E2E2E2E2E2E2E2E2E2E2E2E2E2E2E2E2E2E2E2E2E2E2E2E2E2E2E2E2E2E2
310
E2E2E2E2E2E2E2DCDCDCDCDCDCDCDCDCDCDCDCDCDCDCDCDCDCDCDCDCDCDCDCDCDCDCDCDCDCDCDCDCDCDCDCDCDCDCDCDCDCDCDCDCDCDCDCDCDCDCDCDCDCDCDCDCDCDCDCDCDCDCDCDCDCDCDCDCDCDCDCDCDCDCDCDCBEE2F5E2BEF5EFBEE2F5E2BEE2E2E2E2E2E2E2E2E2E2E2E2E2E2E2E2E2E2E2E2E2E2E2E2E2E2E2E2E2E2E2
310
E2E2E2E2E2E2E2E2E2E2E2E2E2E2E2E2E2E2E2E2E2E2E2E2E2E2E2E2E2E2E2E2E2E2E2E2E2E2E2E2E2E2E2E2E2E2E2E2E2E2E2E2E2E2E2E2E2E2E2E2DCE2E2F5F5F5F5F5F5F5F5F5F5F5F5F5F5F5F5F5F5F5F5F5E2E2E2BEE2E2E2E2E2E2E2E2E2E2E2E2E2E2E2E2E2E2E2E2E2E2E2E2F5F5E2E2E2E2E2E2E2E2E2E2E2E2E2
310
E2E2E2F5F5E2E2E2E2E2BEE2F5E2BEF5EFBEE2F5E2BEE2E2E2E2E2E2E2E2E2E2E2E2E2E2E2E2E2E2E2E2E2E2E2E2E2E2E2E2E2E2E2E2E2E2E2E2E2E2E2E2E2E2E2E2E2E2E2E2E2E2E2E2E2E2E2E2E2E2E2E2E2E2E2E2E2E2E2E2E2E2E2E2E2E2E2E2E2E2E2E2E2E2E2E2E2E2E2E2E2E2E2DCE2E2F5F5F5F5F5F5F5F5F5F5F5
310
F5F5F5F5F5F5F5F5F5F5E2E2E2BEF5E2F5F5F5E2F5E2E2F5F5F5F5F5F5F5F5F5F5F5E2F5E2E2F5F5F5E2E2F5F5F5F5F5F5F5F5E2E2E2E2E2BEE2E2E2E2E2E2BEE2F5E2BEF5EFBEE2F5E2BEE2E2E2E2E2E2E2E2E2E2E2E2E2E2E2E2E2E2E2E2E2E2E2E2E2E2E2E2E2E2E2E2E2E2E2E2E2E2E2E2E2E2E2E2E2E2E2E2E2E2E2E2
310
E2E2E2E2E2E2E2E2E2E2E2E2E2E2E2E2E2E2E2E2E2E2E2E2E2E2E2E2E2E2E2E2E2E2E2E2E2E2E2DCE2E2F5F5F5F5F5F5F5F5F5F5F5F5F5F5F5F5F5F5F5F5F5E2E2E2BEF5E2F5F5F5E2F5F5F5F5F5F5F5F5F5F5F5F5F5F5E2F5F5F5F5F5F5F5F5F5F5F5F5F5F5F5F5E2E2E2E2E2BEE2E2E2E2E2E2BEE2F5E2BEF5EFBEE2F5E2
310
BEE2E2E2E2E2E2E2E2E2E2E2E2E2E2E2E2E2E2E2E2E2E2E2E2E2E2E2E2E2E2E2E2E2E2E2E2E2E2E2E2E2E2E2E2E2E2E2E2E2E2E2E2E2E2E2E2E2E2E2E2E2E2E2E2E2E2E2E2E2E2E2E2E2E2E2E2E2E2E2E2E2E2E2E2E2E2E2E2E2E2E2DCE2E2F5F5F5F5F5F5F5F5F5F5F5F5F5F5F5F5F5F5F5F5F5E2E2E2BEF5F5F5F5F5E2F5
310
E2E2F5F5F5F5F5F5F5F5F5F5F5F5F5E2F5F5F5F5E2F5F5F5F5F5F5F5F5F5E2E2E2E2E2BEE2E2E2E2E2E2BEE2F5E2BEF5EFBEE2F5E2BEE2E2E2E2E2E2E2E2E2E2E2E2E2E2E2E2E2E2E2E2E2E2E2E2E2E2E2E2E2E2E2E2E2E2E2E2E2E2E2E2E2E2E2E2E2E2E2E2E2E2E2E2E2E2E2E2E2E2E2E2E2E2E2E2E2E2E2E2E2E2E2E2E2
310
E2E2E2E2E2E2E2E2E2E2E2E2E2E2E2E2E2E2DCE2E2F5F5F5F5F5F5F5F5F5F5F5F5F5F5F5F5F5F5F5F5F5E2E2E2BEF5F5F5F5F5F5F5E2E2F5F5E2E2E2E2F5E2E2F5F5E2F5E2E2F5E2F5E2E2F5F5F5F5E2E2E2E2E2E2E2E2E2BEE2E2E2E2E2E2BEE2F5E2BEF5EFBEE2F5E2BEE2E2E2E2E2E2E2E2E2E2E2E2E2E2E2E2E2E2E2E2
310
E2E2E2E2E2E2E2E2E2E2E2E2E2E2E2E2E2E2E2E2E2E2E2E2E2E2E2E2E2E2E2E2E2E2E2E2E2E2E2E2E2E2E2E2E2E2E2E2E2E2E2E2E2E2E2E2E2E2E2E2E2E2E2E2E2E2E2E2E2E2E2DCE2E2E2E2E2E2E2E2E2E2E2E2E2E2E2E2E2E2E2E2E2E2E2E2E2E2BEE2E2E2E2E2E2E2E2E2E2E2E2E2E2E2E2E2E2E2E2E2E2E2E2E2E2E2E2
310
E2E2E2E2E2E2E2E2E2E2E2E2E2E2BEBEBEE2E2E2E2BEBEF5E2BEF5EFBEE2F5BEBEE2E2E2E2E2E2E2E2E2E2E2E2E2E2E2E2E2E2E2E2E2E2E2E2E2E2E2E2E2E2E2E2E2E2E2E2E2E2E2E2E2E2E2E2E2E2E2E2E2E2E2E2E2E2E2E2E2E2E2E2E2E2E2E2E2E2E2E2E2E2E2E2E2E2E2E2E2E2E2E2E2E2E2E2E2E2E2E2E2E2E2DCDCDC
310
DCDCDCDCDCDCDCDCDCDCDCDCDCDCDCDCDCDCDCDCDCDCDCDCDCDCDCDCDCDCDCDCDCDCDCDCDCDCDCDCDCDCDCDCDCDCDCDCDCDCDCDCDCDCDCDCDCDCDCDCDCDCDCDCDCDCDCDCDCDCDCDCDCDCBEBEF5E2BEF5EFBEE2F5BEBEE2E2E2E2E2E2E2E2E2E2E2E2E2E2E2E2E2E2E2E2E2E2E2E2E2E2E2E2E2E2E2E2E2E2E2E2E2E2E2E2E2
310
E2E2E2E2E2E2E2E2E2E2E2E2E2E2E2E2E2E2E2E2E2E2E2E2E2E2E2E2E2E2E2E2E2E2E2E2E2E2E2E2E2E2E2E2E2E2E2E2E2E2E2E2E2E2E2E2E2E2E2E2E2E2E2E2E2E2E2E2E2E2E2E2E2E2E2E2E2E2E2E2E2E2E2E2E2E2E2E2E2E2E2E2E2E2E2E2E2E2E2E2E2E2E2E2E2E2E2E2E2E2E2E2E2E2E2E2E2E2E2E2E2E2E2E2E2E2E2
310
BEBEF5E2BEF5EFBEE2F5E2BEE2E2E2E2E2E2E2E2E2E2E2E2E2E2E2E2E2E2E2E2E2E2E2E2E2E2E2E2E2E2E2E2E2E2E2E2E2E2E2E2E2E2E2E2E2E2E2E2E2E2E2E2E2E2E2E2E2E2E2E2E2E2E2E2E2E2E2E2E2E2E2E2E2E2E2E2E2E2E2E2E2E2E2E2E2E2E2E2E2E2E2E2E2E2E2E2E2E2E2E2E2E2E2E2E2E2E2E2E2E2E2E2E2E2E2
310
E2E2E2E2E2E2E2E2E2E2E2E2E2E2E2E2E2E2E2E2E2E2E2E2E2E2E2E2E2E2E2E2E2E2E2E2E2E2E2E2E2E2E2E2E2E2E2E2E2E2E2E2E2BEE2F5E2BEF5EFBEE2F5E2BEE2E2E2E2E2E2E2E2E2E2E2E2E2E2E2E2E2E2E2E2E2E2E2E2E2E2E2E2E2E2E2E2E2E2E2E2E2E2E2E2E2E2E2E2E2E2E2E2E2E2E2E2E2E2E2E2E2E2E2E2E2E2
310
E2E2E2E2E2E2E2E2E2E2E2E2E2E2E2E2E2E2E2E2E2E2E2E2E2E2E2E2E2E2E2E2E2E2E2E2E2E2E2E2E2E2E2E2E2E2E2E2E2E2E2E2E2E2E2E2E2E2E2E2E2E2E2E2E2E2E2E2E2E2E2E2E2E2E2E2E2E2E2E2E2E2E2E2E2E2E2E2E2E2E2E2E2E2E2E2E2E2E2E2E2E2E2E2E2E2BEE2F5E2BEF5EFBEE2F5E2BEE2E2E2E2E2E2E2E2E2
310
E2E2E2E2E2E2E2E2BEBEBEBEBEBEBEBEBEBEBEBEBEBEBEBEBEBEBEBEBEBEBEBEBEBEBEBEBEBEBEBEBEBEBEBEBEBEBEBEBEBEBEBEBEBEBEBEBEBEBEBEBEBEBEBEBEBEBEBEBEBEBEBEBEBEBEBEBEBEBEBEBEBEBEBEBEBEBEBEBEBEBEBEBEBEBEBEBEBEBEBEBEBEBEBEBEBEBEBEBEBEBEBEBEBEBEBEBEBEBEBEBEBEBEBEBEBEBE
310
BEBEBEBEBEBEBEBEBEBEBEBEBEBEBEBEBEBEBEBEBEBEE2E2E2E2E2E2E2E2E2E2BEE2F5E2BEF5EFBEE2F5E2BEE2E2E2E2E2E2E2E2E2E2E2E2E2E2E2E2E2BEE2E2E2E2E2E2E2E2E2E2E2E2E2E2E2E2E2E2E2E2E2E2E2E2E2E2E2E2E2E2E2E2E2E2E2E2E2E2E2E2E2E2E2E2E2E2E2E2E2E2E2E2E2E2E2E2E2E2E2E2E2E2E2E2E2
310
E2E2E2E2E2E2E2E2E2E2E2E2E2E2E2E2E2E2E2E2E2E2E2E2E2E2E2E2E2E2E2E2E2E2E2E2E2E2E2E2E2E2E2E2E2E2E2E2E2E2E2E2E2E2E2E2E2E2E2E2E2E2E2E2E2E2E2E2E2E2E2E2E2E2BEE2E2E2E2E2E2E2E2E2E2BEE2F5E2BEF5EFBEE2F5E2BEE2E2E2E2E2E2E2E2E2E2E2E2E2E2E2E2E2BEE2E2E2E2E2E2E2E2E2E2E2E2
310
E2E2E2E2E2E2E2E2E2E2E2E2E2E2E2E2E2E2E2E2E2E2E2E2E2E2E2E2E2E2E2E2E2E2E2E2E2E2E2E2E2E2E2E2E2E2E2E2E2E2E2E2E2E2E2E2E2E2E2E2E2E2E2E2E2E2E2E2E2E2E2E2E2E2E2E2E2E2E2E2E2E2E2E2E2E2E2E2E2E2E2E2E2E2E2E2E2E2E2E2E2E2E2E2E2E2E2E2E2E2E2E2E2E2E2E2E2E2E2E2E2E2E2E2E2E2E2
310
BEE2E2E2E2E2E2E2E2E2E2BEE2F5E2BEF5EFBEE2F5E2BEE2E2E2E2E2E2E2E2E2E2E2E2E2E2E2E2E2BEE2E2E2E2E2E2E2E2E2E2E2E2E2E2E2E2E2E2E2E2E2E2E2E2E2E2E2E2E2E2E2E2E2E2E2E2E2E2E2E2E2E2E2E2E2E2E2E2E2E2E2E2E2E2E2E2E2E2E2E2E2E2E2E2E2E2E2E2E2E2E2E2E2E2E2E2E2E2E2E2E2E2E2E2E2E2
310
E2E2E2E2E2E2E2E2E2E2E2E2E2E2E2E2E2E2E2E2E2E2E2E2E2E2E2E2E2E2E2E2E2E2E2E2E2E2E2E2E2E2E2E2E2E2E2E2E2E2E2E2E2BEE2E2E2E2E2E2E2E2E2E2BEE2F5E2BEF5EFBEE2F5E2BEE2E2E2E2E2E2E2E2E2E2E2E2E2E2E2E2E2BEE2E2E2E2E2E2E2E2E2E2E2E2E2E2E2E2E2E2E2E2E2E2E2E2E2E2E2E2E2E2E2E2E2
310
E2E2E2E2E2E2E2E2E2E2E2E2E2E2E2E2E2E2E2E2E2E2E2E2E2E2E2E2E2E2E2E2E2E2E2E2E2E2E2E2E2E2E2E2E2E2E2E2E2E2E2E2E2E2E2E2E2E2E2E2E2E2E2E2E2E2E2E2E2E2E2E2E2E2E2E2E2E2E2E2E2E2E2E2E2E2E2E2E2E2E2E2E2E2E2E2E2E2E2E2E2E2E2E2E2E2BEE2E2E2E2E2E2E2E2E2E2BEE2F5E2BEF5EFBEE2F5
310
E2BEE2E2E2E2E2E2E2E2E2E2E2E2E2E2E2E2E2BEE2E2E2E2E2E2E2E2E2E2E2E2E2E2E2E2E2E2E2E2E2E2E2E2E2E2E2E2E2E2E2E2E2E2E2E2E2E2E2E2E2E2E2E2E2E2E2E2E2E2E2E2E2E2E2E2E2E2E2E2E2E2E2E2E2E2E2E2E2E2E2E2E2E2E2E2E2E2E2E2E2E2E2E2E2E2E2E2E2E2E2E2E2E2E2E2E2E2E2E2E2E2E2E2E2E2E2
310
E2E2E2E2E2E2E2E2E2E2E2E2E2E2E2E2E2E2E2E2E2E2E2E2E2E2E2E2E2E2E2E2BEE2E2E2E2E2E2E2E2E2E2BEE2F5E2BEF5EFBEE2F5BEBEE2E2E2E2E2E2E2E2E2E2E2E2E2E2E2E2E2BEE2E2E2E2E2E2E2E2E2E2E2E2E2E2E2E2E2E2E2E228282828282828282828282828282828282828282828282828282828282828282828
310
28282828282828282828282828282828282828282828282828282828282828282828282828282828282828282828282828282828282828282828282828282828282828282828282828E2E2E2E2E2E2E2E2E2E2E2E2BEE2E2E2E2E2E2E2E2E2E2BEBEF5E2BEF5EFBEE2F5E2BEE2E2E2E2E2E2E2E2E2E2E2E2E2E2E2E2E2BEE2
310
E2E2E2E2E2E2E2E2E2E2E2E2E2E2E2E2E2E2E228E2E2E2E2E2E2E2E2E2E2E2E2E2E2E2E2E2E2E2E2E2E2E2E2E2E2E2E2E2E2E2E2E2E2E2E2E2E2E2E2E2E2E2E2E2E2E2E2E2E2E2DCDCDCDCE2E2E2E2E2E2E2E2E2E2E2E2E2E2E2E2E2E2E2E2E2E2E2E2E2E2E2E2E2E2E2E2E2E2E2E2E2E2E2E2E2E2E2E2E2E2E2E2E2E228E2
310
E2E2E2E2E2E2E2E2E2E2E2BEE2E2E2E2E2E2E2E2E2E2BEE2F5E2BEF5EFBEE2F5E2BEE2E2E2E2E2E2E2E2E2E2E2E2E2E2E2E2E2BEE2E2E2E2E2E2E2E2E2E2E2E2E2E2E2E2E2E2E2E228E2E2E2E2E2E2E2E2E2E2E2E2E2E2E2E2E2E2E2E2E2E2E2E2E2E2E2E2E2E2E2E2E2E2E2E2E2E2E2E2E2E2E2E2E2E2E2E2E2E2E2DCDCDC
310
DCE2E2E2E2E2E2E2E2E2E2E2E2E2E2E2E2E2E2E2E2E2E2E2E2E2E2E2E2E2E2E2E2E2E2E2E2E2E2E2E2E2E2E2E2E2E2E2E2E2E228E2E2E2E2E2E2E2E2E2E2E2E2BEE2E2E2E2E2E2E2E2E2E2BEE2F5E2BEF5EFBEE2F5E2BEE2E2E2E2E2E2E2E2E2E2E2E2E2E2E2E2E2BEE2E2E2E2E2E2E2E2E2E2E2E2E2E2E2E2E2E2E2E228E2
310
E2E2E2E2E2E2E2E2E2E2E2E2E2E2E2E2E2E2E2E2E2E2E2E2E2E2E2E2E2E2E2E2E2E2E2E2E2E2E2E2E2E2E2E2E2E2E2E2E2E2E2E2E2E2E2E2E2E2E2E2E2E2E2E2E2E2E2E2E2E2E2E2E2E2E2E2E2E2E2E2E2E2E2E2E2E2E2E2E2E2E2E2E2E2E2E2E2E2E2E2E2E2E2E228E2E2E2E2E2E2E2E2E2E2E2E2BEE2E2E2E2E2E2E2E2E2
310
E2BEE2F5E2BEF5EFBEE2F5E2BEE2E2E2E2E2E2E2E2E2E2E2E2E2E2E2E2E2BEE2E2E2E2E2E2E2E2E2E2E2E2E2E2E2E2E2E2E2E228E2E2E2E2E2E2E2E2E2E2E2E22828282828282828282828282828282828282828282828282828282828282828282828282828282828E2E2E2E2E2E2E2E2E2E2E2E2E2E2E2E2E2E2E2E2E2E2
310
E2E2E2E2E2E2E2E2E2E2E2E2E2E2E2E2E2E2E2E2E2E2E2E2E2E2E2E2E2E228E2E2E2E2E2E2E2E2E2E2E2E2BEE2E2E2E2E2E2E2E2E2E2BEE2F5E2BEF5EFBEE2F5E2BEE2E2E2E2E2E2E2E2E2E2E2E2E2E2E2E2E2BEE2E2E2E2E2E2E2E2E2E2E2E2E2E2E2E2E2E2E2E228E2E2E2E2E2E2E2E2E2E2E2E22828E2E2E2E2E2E2E2E2
310
E2E2E2E2E2E2E2E2E2DCDCDCE2E2E2E2E2E2E2E2E2E2E2E2E2E2E2E2E22828E2E2E2E2E2E2E2E2E2E2E2E2E2E2E2E2E2E2E2E2E2E2E2E2E2E2E2E2E2E2E2E2E2E2E2E2E2E2E2E2E2E2E2E2E2E2E2E2E2E2E2E228E2E2E2E2E2E2E2E2E2E2E2E2BEE2E2E2E2E2E2E2E2E2E2BEE2F5E2BEF5EFBEE2F5E2BEE2E2E2E2E2E2E2E2
310
E2E2E2E2E2E2E2E2E2BEE2E2E2E2E2E2E2E2E2E2E2E2E2E2E2E2E2E2E2E228E2E2E2E2E2E2E2E2E2E2E2E228E2E2E2E2E2E2E2E2E2E2E2E2E2E2E2E2E2E2DCDCDCE2E2E2E2E2E2E2E2E2E2E2E2E2E2E2E2E2E228E2E2E2E2E2E2E2E2E2E2E2E2E2E2E2E2E2E2E2E2E2E2E2E2E2E2E2E2E2E2E2E2E2E2E2E2E2E2E2E2E2E2E2
310
E2E2E2E2E2E2E2E2E228E2E2E2E2E2E2E2E2E2E2E2E2BEE2E2E2E2E2E2E2E2E2E2BEE2F5E2BEF5EFBEE2F5E2BEE2E2E2E2E2E2E2E2E2E2E2E2E2E2E2E2E2BEE2E2E2E2E2E2E2E2E2E2E2E2E2E2E2E2E2E2E2E228E2E2E2E2E2E2E2E2E2E2E2E228E2E2E2E2E2E2E2E2E2E2E2E2E2E2E2E2E2E2DCDCDCE2E2E2E2E2E2E2E2E2
310
E2E2E2E2E2E2E2E2E228E2E2E2E2E2E2E2E2E2E2E2E2E2E2E2E2E2E2E2E2E2E2E2E2E2E2E2E2E2E2E2E2E2E2E2E2E2E2E2E2E2E2E2E2E2E2E2E2E2E2E2E228E2E2E2E2E2E2E2E2E2E2E2E2BEE2E2E2E2E2E2E2E2E2E2BEE2F5E2BEF5EFBEE2F5E2BEE2E2E2E2E2E2E2E2E2E2E2E2E2E2E2E2E2BEE2E2E2E2E2E2E2E2E2E2E2
310
E2E2E2E2E2E2E2E2E228E2E2E2E2E2E2E2E2E2E2E2E228E2E2E2E2E2E2E2E2E2E2E2E2E2E228E2E2E2E2E2E2E2E2E2E2E2E2E2E2E2E2E2E2E2E2E2E2E2E228E2E2E2E2E2E2E2E2E2E2E2E2E2E2E2E2E2E2E2E2E2E2E2E2E2E2E2E2E2E2E2E2E2E2E2E2E2E2E2E2E2E2E2E2E2E2E2E2E2E2E2E228E2E2E2E2E2E2E2E2E2E2E2
310
E2BEE2E2E2E2E2E2E2E2E2E2BEE2F5E2BEF5EFBEE2F5BEBEE2E2E2E2E2E2E2E2E2E2E2E2E2E2E2E2E2BEE2E2E2E2E2E2E2E2E2E2E2E2E2E2E2E2E2E2E2E228E2E2E2E2E2E2E2E2E2E2E2E228E2E2E2E2E2E2E2E2E2E2E2E2E2E2282828282828282828282828DCDCDC2828282828282828282828E2E2E2E2E2E2E2E2E2E2E2
310
E2E2E2E2E2E2E2E2E2E2E2E2E2E2E2E2E2E2E2E2E2E2E2E2E2E2E2E2E2E2E2E2E2E2E2E2E2E2E2E2E228E2E2E2E2E2E2E2E2E2E2E2E2BEE2E2E2E2E2E2E2E2E2E2BEBEF5E2BEF5EFBEE2F5BEBEE2E2E2E2E2E2E2E2E2E2E2E2E2E2E2E2E2BEE2E2E2E2E2E2E2E2E2E2E2E2E2E2E2E2E2E2E2E228E2E2E2E2E2E2E2E2E2E2E2
310
E228E2E2E2E2E2E2E2E2E2E2E2E2E2E228E2E2E2E2E2E2E2E2E2E2E2DCDCDCE2E2E2E2E2E2E2E2E2E228E2E2E2E2E2E2E2E2E2E2E2E2E2E2E2E2E2E2E2E2E2E2E2E2E2E2E2E2E2E2E2E2E2E2E2E2E2E2E2E2E2E2E2E2E2E2E2E2E2E2E2E228E2E2E2E2E2E2E2E2E2E2E2E2BEE2E2E2E2E2E2E2E2E2E2BEBEF5E2BEF5EFBEE2
310
F5E2BEE2E2E2E2E2E2E2E2E2E2E2E2E2E2E2E2E2BEE2E2E2E2E2E2E2E2E2E2E2E2E2E2E2E2E2E2E2E228E2E2E2E2E2E2E2E2E2E2E2E228E2E2E2E2E2E2E2E2E2E2E2E2E2E228E2E2E2E2E2E2E2E2E2E2E2DCDCDCE2E2E2E2E2E2E2E2E2E228E2E2E2E2E2E2E2E2E2E2E2E2E2E2E2E2E2E2E2E2E2E2E2E2E2E2E2E2E2E2E2E2
310
E2E2E2E2E2E2E2E2E2E2E2E2E2E2E2E2E2E2E2E228E2E2E2E2E2E2E2E2E2E2E2E2BEE2E2E2E2E2E2E2E2E2E2BEE2F5E2BEF5EFBEE2F5E2BEE2E2E2E2E2E2E2E2E2E2E2E2E2E2E2E2E2BEE2E2E2E2E2E2E2E2E2E2E2E2E2E2E2E2E2E2E2E228E2E2E2E2E2E2E2E2E2E2E2E228E2E2E2E2E2E2E2E2E2E2E2E2E2E228E2E2E2E2
310
E2E2E2E2E2E2E2E2E2E2E2E2E2E2E2E2E2E2E2E228E2E2E2E2E2E2E2E2E2E2E2E2E2E2E2E2E2E2E2E2E2E2E2E2E2E2E2E2E2E2E2E2E2E2E2E2E2E2E2E2E2E2E2E2E2E2E2E2E2E2E2E228E2E2E2E2E2E2E2E2E2E2E2E2BEE2E2E2E2E2E2E2E2E2E2BEE2F5E2BEF5EFBEE2F5E2BEE2E2E2E2E2E2E2E2E2E2E2E2E2E2E2E2E2BE
310
E2E2E2E2E2E2E2E2E2E2E2E2E2E2E2E2E2E2E2E228E2E2E2E2E2E2E2E2E2E2E2E228E2E2E2E2E2E2E2E2E2E2E2E2E2E228E2E2E228282828282828282828282828282828282828282828E2E2E2E2E2E2E2E2E2E2E2E2E2E2E2E2E2E2E2E2E2E2E2E2E2E2E2E2E2E2E2E2E2E2E2E2E2E2E2E2E2E2E2E2E2E2E2E2E2E2E2E228
310
E2E2E2E2E2E2E2E2E2E2E2E2BEE2E2E2E2E2E2E2E2E2E2BEE2F5E2BEF5EFBEE2F5E2BEE2E2E2E2E2E2E2E2E2E2E2E2E2E2E2E2E2BEE2E2E2E2E2E2E2E2E2E2E2E2E2E2E2E2E2E2E2E228E2E2E2E2E2E2E2E2E2E2E2E228E2E2E2E2E2E2E2E2E2E2E2E2E2E228E2E2E228E2E2E2E2E2E2E2E2E2DCDCDCE2E2E2E2E2E2E2E228
310
E2E2E2E2E2E2E2E2E2E2E2E2E2E2E2E2E2E2E2E2E2E2E2E2E2E2E2E2E2E2E2E2E2E2E2E2E2E2E2E2E2E2E2E2E2E2E2E2E2E2E2E228E2E2E2E2E2E2E2E2E2E2E2E2BEE2E2E2E2E2E2E2E2E2E2BEE2F5E2BEF5EFBEE2F5E2BEE2E2E2E2E2E2E2E2E2E2E2E2E2E2E2E2E2BEE2E2E2E2E2E2E2E2E2E2E2E2E2E2E2E2E2E2E2E228
310
E2E2E2E2E2E2E2E2E2E2E2E228E2E2E2E2E2E2E2E2E2E2E2E2E2E228E2E2E228E2E2E2E2E2E2E2E2E2DCDCDCE2E2E2E2E2E2E2E228E2E2E2E2E2E2E2E2E2E2E2E2E2E2E2E2E2E2E2E2E2E2E2E2E2E2E2E2E2E2E2E2E2E2E2E2E2E2E2E2E2E2E2E2E2E2E2E2E2E2E2E228E2E2E2E2E2E2E2E2E2E2E2E2BEE2E2E2E2E2E2E2E2
310
E2E2BEE2F5E2BEF5EFBEE2F5E2BEE2E2E2E2E2E2E2E2E2E2E2E2E2E2E2E2E2BEE2E2E2E2E2E2E2E2E2E2E2E2E2E2E2E2E2E2E2E228E2E2E2E2E2E2E2E2E2E2E2E228E2E2E2E2E2E2E2E2E2E2E2E2E2E228E2E2E228E2E2E2E2E2E2E2E2E2E2E2E2E2E2E2E2E2E2E2E228E2E2E2E2E2E2E2E2E2E2E2E2E2E2E2E2E2E2E2E2E2
310
E2E2E2E2E2E2E2E2E2E2E2E2E2E2E2E2E2E2E2E2E2E2E2E2E2E2E2E2E2E2E228E2E2E2E2E2E2E2E2E2E2E2E2BEE2E2E2E2E2E2E2E2E2E2BEE2F5E2BEF5EFBEE2F5E2BEE2E2E2E2E2E2E2E2E2E2E2E2E2E2E2E2E2BEE2E2E2E2E2E2E2E2E2E2E2E2E2E2E2E2E2E2E2E228E2E2E2E2E2E2E2E2E2E2E2E228E2E2E2E2E2E2E2E2
310
E2E2E2E2E2E228E2E2E228E2E2E2E2E2E2E2E228282828282828282828282828E2E2E2E2E2E2E2E2E2E2E2E2E2E2E2E2E2E2E2E2E2E2E2E2E2E2E2E2E2E2E2E2E2E2E2E2E2E2E2E2E2E2E2E2E2E2E2E2E2E2E2E228E2E2E2E2E2E2E2E2E2E2E2E2BEE2E2E2E2E2E2E2E2E2E2BEE2F5E2BEF5EFBEE2F5E2BEE2E2E2E2E2E2E2
310
E2E2E2E2E2E2E2E2E2E2BEE2E2E2E2E2E2E2E2E2E2E2E2E2E2E2E2E2E2E2E228E2E2E2E2E2E2E2E2E2E2E2E228E2E2E2E2E2E2E2E2E2E2E2E2E2E228E2E2E228E2E2E2E2E2E2E2E228E2E2E2E2DCDCDCE2E2E2E228E2E2E2E2E2E2E2E2E2E2E2E2E2E2E2E2E2E2E2E2E2E2E2E2E2E2E2E2E2E2E2E2E2E2E2E2E2E2E2E2E2E2
310
E2E2E2E2E2E2E2E2E2E228E2E2E2E2E2E2E2E2E2E2E2E2BEE2E2E2E2E2E2E2E2E2E2BEE2F5E2BEF5EFBEE2F5BEBEE2E2E2E2E2E2E2E2E2E2E2E2E2E2E2E2E2BEE2E2E2E2E2E2E2E2E2E2E2E2E2E2E2E2E2E2E2E228E2E2E2E2E2E2E2E2E2E2E2E228E2E2E2E2E2E2E2E2E2E2E2E2E2E228E2E2E228E2E2E2E2E2E2E2E228E2
310
E2E2E2DCDCDCE2E2E2E228E2E2E2E2E2E2E2E2E2E2E2E2E2E2E2E2E2E2E2E2E2E2E2E2E2E2E2E2E2E2E2E2E2E2E2E2E2E2E2E2E2E2E2E2E2E2E2E2E2E2E2E228E2E2E2E2E2E2E2E2E2E2E2E2BEE2E2E2E2E2E2E2E2E2E2BEBEF5E2BEF5EFBEE2F5E2BEE2E2E2E2E2E2E2E2E2E2E2E2E2E2E2E2E2BEE2E2E2E2E2E2E2E2E2E2
310
E2E2E2E2E2E2E2E2E2E228E2E2E2E2E2E2E2E2E2E2E2E228E2E2E2E2E2E2E2E2E2E2E2E2E2E228E2E2E228E2E2E2E2E2E2E2E228E2E2E2E2E2E2E2E2E2E2E228E2E2E2E2E2E2E2E2E2E2E2E2E2E2E2E2E2E2E2E2E2E2E2E2E2E2E2E2E2E2E2E2E2E2E2E2E2E2E2E2E2E2E2E2E2E2E2E2E2E2E2E228E2E2E2E2E2E2E2E2E2E2
310
E2E2BEE2E2E2E2E2E2E2E2E2E2BEE2F5E2BEF5EFBEE2F5E2BEE2E2E2E2E2E2E2E2E2E2E2E2E2E2E2E2E2BEE2E2E2E2E2E2E2E2E2E2E2E2E2E2E2E2E2E2E2E228E2E2E2E2E2E2E2E2E2E2E2E228E2E2E2E2E2E2E2E2E2E2E2E2E2E228E2E2E228E2E2E2E2E2E2E2E228E2E2E2E2E2E2E2E2E2E2E228E2E2E2E2E2E2E2E2E2E2
310
E2E2E2E2E2E2E2E2E2E2E2E2E2E2E2E2E2E2E2E2E2E2E2E2E2E2E2E2E2E2E2E2E2E2E2E2E2E2E2E2E2E228E2E2E2E2E2E2E2E2E2E2E2E2BEE2E2E2E2E2E2E2E2E2E2BEE2F5E2BEF5EFBEE2F5E2BEE2E2E2E2E2E2E2E2E2E2E2E2E2E2E2E2E2BEE2E2282828282828282828282828282828282828F5F5F5F5F5F5F5F5F5F5F5
310
F5F5F5F5F5F5F5F5F5F5F5F5F5F5F5F5F5F5F5F5F5F5F5F5F5F5F5F5F5F5F5F5F5F5F5F5F5F5F5F5F5F5F5F5F5F5F5F5F5F5F5F5F5F5F5F5F5F5F5F5F5F5F5F5F5F5F5F5F5F5F5F5F5F5F5F5F5F5F5F5F5F5F5F5F5F5F5F5F5F5F5F5F5F5F5F528282828282828282828E2E2BEE2E2E2E2E2E2E2E2E2E2BEE2F5E2BEF5EFBE
310
E2F5E2BEE2E2E2E2E2E2E2E2E2E2E2E2E2E2E2E2E2BEE2E22828E2E2E2E2E2E2E2E2E2E2E2E2E2E2E2E2F5E2E2E2E2E2E2E2E2E2E2E2E228E2E2E2E2E2E2E2E2E2E2E2E2E2E228E2E2E228E2E2E2E2E2E2E2E228E2E2E2E2E2E2E2E2E2E2E22DE2E2E2E2E2E2E2E2E2E2E2E2E2E2E2E2E2E2E2E2E2E2E2E2E2E2E2E2E2E2E2
310
E2E2E2E2E2E2E2E2E2E2E2E2E2E2E2E2E2E2E2E2E2F5E2E2E2E2E2E2E2E2E228E2E2BEE2E2E2E2E2E2E2E2E2E2BEE2F5E2BEF5EFBEE2F5E2BEE2E2E2E2E2E2E2E2E2E2E2E2E2E2E2E2E2BEE2E2E228E2E2E2E2E2E2E2E2E2E2E2E2E2E2E2E2F5E2E2E2E2E2E2E2E2E2E2E2E228E2E2E2E2E2E2E2E2E2E2E2E2E2E228E2E2E2
310
28E2E2E2E2E2E2E2E228E2E2E2E2E2E2E2E2E2E2E22DE2E2E2E2E2E2E2E2E2E2E2E2E2E2E2E2E2E2E2E2E2E2E2E2E2E2E2E2E2E2E2E2E2E2E2E2E2E2E2E2E2E2E2E2E2E2E2E2E2E2E2E2F5E2E2E2E2E2E2E2E2E228E2E2BEE2E2E2E2E2E2E2E2E2E2BEE2F5E2BEF5EFBEE2F5E2BEE2E2E2E2E2E2E2E2E2E2E2E2E2E2E2E2E2
310
BEE2E2E228E2E2E2E2E2E2E2E2E2E2E2E2E2E2E2E2F5E2E2E2E2E2E2E2E2E2E2E2E228E2E2E2E2E2E2E2E2E2E2E2E2E2E228E2E2E228E2E2E2E2E2E2E2E228E2E2E2E2E2E2E2E2E2E2E22DE2E2E2E2E2E2E2E2E2E2E2E2E2E2E2E2E2E2E2E2E2E2E2E2E2E2E2E2E2E2E2E2E2E2E2E2E2E2E2E2E2E2E2E2E2E2E2E2E2E2E2E2
310
F5E2E2E2E2E2E2E2E2E228E2E2BEE2E2E2E2E2E2E2E2E2E2BEE2F5E2BEF5EFBEE2F5E2BEE2E2E2E2E2E2E2E2E2E2E2E2E2E2E2E2E2BEE2E2E228E2E2E2E2E2E2E2E2E2E2E2E2E2E2E2E2F5E2E2E2E2E2E2E2E2E2E2E2E228E2E2E2E2E2E2E2E2E2E2E2E2E2E228E2E2E228E2E2E2E2E2E2E2E228E2E2E2E2E2E2E2E2E2E2E2
310
2DE2E2E2E2E2E2E2E2E2E2E2E2E2E2E2E2E2E2E2E2E2E2E2E2E2E2E2E2E2E2E2E2E2E2E2E2E2E2E2E2E2E2E2E2E2E2E2E2E2E2E2E2F5E2E2E2E2E2E2E2E2E228E2E2BEE2E2E2E2E2E2E2E2E2E2BEE2F5E2BEF5EFBEE2F5E2BEE2E2E2E2E2E2E2E2E2E2E2E2E2E2E2E2E2BEE2E2E228E2E2E2E2E2E2E2E2E2E2E2E2E2E2E2E2
310
F5E2E2E2E2E2E2E2E2E2E2E2E228E2E2E2E2E2E2E2E2E2E2E2E2E2E228E2E2E228E2E2E2E2E2E2E2E228E2E2E2E2E2E2E2E2E2E2E22DE2E2E2E2E2E2E2E2E2E2E2E2E2E2E2E2E2E2E2E2E2E2E2E2E2E2E2E2E2E2E2E2E2E2E2E2E2E2E2E2E2E2E2E2E2E2E2E2E2E2E2E2F5E2E2E2E2E2E2E2E2E228E2E2BEE2E2E2E2E2E2E2
310
E2E2E2BEE2F5E2BEF5EFBEE2F5BEBEE2E2E2E2E2E2E2E2E2E2E2E2E2E2E2E2E2BEE2E2E228E2E2E2E2E2E2E2E2E2E2E2E2E2E2E2E2F5E2E2E2E2E2E2E2E2E2E2E2E228E2E2E2E2E2E2E2E2E2E2E2E2E2E228E2E2E228E2E2E2E2E2E2E2E228E2E2E2E2E2E2E2E2E2E2E22DE2E2E2E2E2E2E2E2E2E2E2E2E2E2E2E2E2E2E2E2
310
E2E2E2E2E2E2E2E2E2E2E2E2E2E2E2E2E2E2E2E2E2E2E2E2E2E2E2E2E2E2E2E2F5E2E2E2E2E2E2E2E2E228E2E2BEE2E2E2E2E2E2E2E2E2E2BEBEF5E2BEF5EFBEE2F5BEBEE2E2E2E2E2E2E2E2E2E2E2E2E2E2E2E2E2BEE2E2E228E2E2E2E2E2E2E2E2E2E2E2E2E2E2E2E2F5E2E2E2E2E2E2E2E2E2E2E2E228E2E2E2E2E2E2E2
310
E2E2E2E2E2E2E228E2E2E228E2E2E2E2E2E2E2E228F5F5F5F5F5F5F5F5F5F5F5F5F5F5F5F5F5F5F5F5F5F5F5F528282828282828E2E2E2E2E2E2E2E2E2E2E2E2E2E2E2E2E2E2E2E2E22DE2E2E2E2E2E2E2E2E2E2E2F5E2E2E2E2E2E2E2E2E228E2E2BEE2E2E2E2E2E2E2E2E2E2BEBEF5E2BEF5EFBEE2F5BEBEE2E2E2E2E2E2
310
E2E2E2E2E2E2E2E2E2E2E2BEE2E2E228E2E2E2E2E2E2E2E2E2E2E2E2E2E2E2E2F5E2E2E2E2E2E2E2E2E2E2E2F52DF5E2E2E2E2E2E2E2E2E2E2E2E2E228E2E2E228E2E2E2E2E2E2E2E2F5E2E2E2E2E2E2E2E2E2E2E22DE2E2E2E2E2E2E2E2E2E2E2E2F5E2E2E2E228E2E2E2E2E2E2E2E2E2E2E2E2E2E2E2E2E2E2E2E2E2F5F5
310
E2E2E2E2E2E2E2E2E2E2E2F5E2E2E2E2E2E2E2E2E228E2E2BEE2E2E2E2E2E2E2E2E2E2BEBEF5E2BEF5EFBEE2F5E2BEE2E2E2E2E2E2E2E2E2E2E2E2E2E2E2E2E2BEE2E2E228E2E22828282828282828282828282828F528282828282828282828282D2D2D2DE2E2E2E2E2E2E2E2E2E2E2E228E2E2E228E2E2E2E2E2E2E2E2F5
310
E2E2E2E2E2E2E2E2E2E2E22DE2E2E2E2E2E2E2E2E2E2E2E2F5E2E2E2E228E2E2E2E2E2E2E2E2E2E2E2E2E2E2E2E2E2E2E2E22DF5F5F5E2E2E2E2E2E2E2E2E2E2F5E2E2E2E2E2E2E2E2E228E2E2BEE2E2E2E2E2E2E2E2E2E2BEE2F5E2BEF5EFBEE2F5E2BEE2E2E2E2E2E2E2E2E2E2E2E2E2E2E2E2E2BEE2E2E228E2E2E228E2
310
E2E2E2E2E2E2E2E2E2E2E2F5E2E2E2E2E2E2E2E2E2E2E2E22DE2E2E2E2E2E2E2E2E2E2E2E2E2E228E2E2E228E2E2E2E2E2E2E2E2F5E2E2E2E2E2E2E2E2E2E2E22DE2E2E2E2E2E2E2E2E2E2E2E2F5E2E2E2E228E2E2E2E2E2E2E2E2E2E2E2E2E2E2E2E2E2E2E2E2E2E2F5E2E2E2E2E2E2E2E2E2E2E2F5E2E2E2E2E2E2E2E2E2
310
28E2E2BEE2E2E2E2E2E2E2E2E2E2BEE2F5E2BEF5EFBEE2F5E2BEE2E2E2E2E2E2E2E2E2E2E2E2E2E2E2E2E2BEE2E2E228E2E2E228E2E2E2E2E2E2E2E2E2E2E2E2F5E2E2E2E2E2E2E2E2E2E2E2E2E2E2E2E2E2E2E2E2E2E2E2E2E2E2E228E2E2E228E2E2E2E2E2E2E2E2F5E2E2E2E2E2E2E2E2E2E2E22DE2E2E2E2E2E2E2E2E2
310
E2E2E2F5E2E2DCDCDCE2E2E2E2E2E2E2E2E2E2E2E2E2E2E2E2E2E2E2E2E2E2E2E2E2E2E2E2E2E2E2E2E2E2F5E2E2E2E2E2E2E2E2E228E2E2BEE2E2E2E2E2E2E2E2E2E2BEE2F5E2BEF5EFBEE2F5E2BEE2E2E2E2E2E2E2E2E2E2E2E2E2E2E2E2E2BEE2E2E228E2E2E228E2E2E2E2E2E2E2E2E2E2E2E2F5E2E2E2E2E2E2E2E2E2
310
E2E2E2E2E2E2E2E2E2E2E2E2E2E2E2E2E2E228E2E2E228E2E2E2E2E2E2E2E2F5E2E2E2E2E2E2E2E2E2E2E22DE2E2E2E2E2E2E2E2E2E2E2E2F5E2E2DCDCDCE2E2E2E2E2E2E2E2E2E2E2E2E2E2E2E2E2E2E2E2E2E2E2E2E2E2E2E2E2E2E2E2E2E2F5E2E2E2E2E2E2E2E2E228E2E2BEE2E2E2E2E2E2E2E2E2E2BEE2F5E2BEF5EF
310
BEE2F5E2BEE2E2E2E2E2E2E2E2E2E2E2E2E2E2E2E2E2BEE2E2E228E2E2E228E2E2E2E2E2E2E2E2E2E2E2E2F5E2E2E2E2E2E2E2E2E2E2E2E2E2E2E2E2E2E2E2E2E2E2E2E2E2E2E228E2E2E228E2E2E2E2E2E2E2E2F5E2E2E2E2E2E2E2E2E2E2E22DE2E2E2E2E2E2E2E2E2E2E2E2F5E2E2DCDC28E2E2E2E2E2E2E2E2E2E2E2E2
310
E2E2E2E2E2E2E2E2E2E2E2E2E2E2E2E2E2E2E2E2E2E2F5E2E2E2E2E2E2E2E2E228E2E2BEE2E2E2E2E2E2E2E2E2E2BEE2F5E2BEF5EFBEE2F5E2BEE2E2E2E2E2E2E2E2E2E2E2E2E2E2E2E2E2BEE2E2E228E2E2E228E2E2E2E2E2E2E2E2E2E2E2E2F5E2E2E2E2E2E2E2E2E2E2E2E2E2E2E2E2E2E2E2E2E2E2E2E2E2E2E228E2E2
310
E228E2E2E2E2E2E2E2E2F5E2E2E2E2E2E2E2E2E2E2E22DE2E2E2E2E2E2E2E2E2E2E2E2F5E2E2E2E228E2E2E2E2E2E2E2E2E2E2E2E2E2E2E2E2E2E2E2E2E2E2E2E2E2E2E2E2E2E2E2E2E2E2F5E2E2E2E2E2E2E2E2E228E2E2BEE2E2E2E2E2E2E2E2E2E2BEE2F5E2BEF5EFBEE2F5E2BEE2E2E2E2E2E2E2E2E2E2E2E2E2E2E2E2
310
E2BEE2E2E228E2E2E228E2E2E2E2E2E2E2E2E2E2E2E2F5E2E2E2E2E2E2E2E2E2E2E2E2E2E2E2E2E2E2E2E2E2E2E2E2E2E2E228E2E2E228E2E2E2E2E2E2E2E2F5E2E2E2E2E2E2E2E2E2E2E22DE2E2E2E2E2E2E2E2E2E228E2F5E2E2E2E228E2E2E2E2E2E2E2E2E2E2E2E2E2E2E2E2E2E2E2E2E2E2E2E2E2E2E2E2E2E2E2E2E2
310
E2F5E2E2E2E2E2E2E2E2E228E2E2BEE2E2E2E2E2E2E2E2E2E2BEE2F5E2BEF5EFBEE2F5E2BEE2E2E2E2E2E2E2E2E2E2E2E2E2E2E2E2E2BEE2E2E228E2E2E228E2E2E2E2E2E2E2E2E2E2E2E2F5E2E2E2E2E2E2E2E2E2E2E2E2E2E2E2E2E2E2E2E2E2E2E2E2E2E2E228E2E2E228E2E2E2E2E2E2E2E2F5E2E2E2E2E2E2E2E2E2E2
310
E22DE2E2E2E2E2E2E2E2E2E2E2E2F5E2E2E2E228E2E2E2E2E2E2E2E2E2E2E2E2E2E2E2E2E2E2E2E2E2E2E2E2E2E2E2E2E2E2E2E2E2E2F5E2E2E2E2E2E2E2E2E228E2E2BEE2E2E2E2E2E2E2E2E2E2BEE2F5E2BEF5EFBEE2DCDCDCE2E2E2E2E2E2E2E2E2E2E2E2E2E2E2E2E2BEE2E2E228E2E2E228E2E2E2E2E2E2E2E2E2E2E2
310
E2F5E2E2E2E2E2E2E2E2E2E2E2E2E2E2E2E2E2E2E2E2E2E2E2E2E2E2E228E2E2E228E2E2E2E2E2E2E2E2E2F5F5F5F5F5F5F5F5F5F5F5F5F5F5F5F5F5F5F5F5F5F5F5F528282828282828E2E2E2E2E2E2E2E2E2E2E2E2E2E2E2E2E2E2E2E2E2E2E2E2E2E2E2E2E2E2E2E2E2F5E2E2E2E2E2E2E2E2E228E2E2BEE2E2E2E2E2E2
310
E2E2E2E2DCDCDCE2BEF5EFBEE2F5E2BEE2E2E2E2E2E2E2E2E2E2E2E2E2E2E2E2E2BEE2DCDC28E2E2E228E2E2E2E2E2E2E2E2E2E2E2E2F5E2E2E2E2E2E2E2E2E2E2E2E2E2E2E2E2E2E2E2E2E2E2E2E2E2E2E228E2E2E228E2E2E2E2E2E2E2E2E2E2E2E2E2E2E2E2E2E2E2E22DE2E2E2E2E2E2E2E2E2E2E2E228E2E2E2E2E2E2
310
E2E2E2E2E2E2E2E2E2E2E2E2E2E2E2E2E2E2E2E2E2E2E2E2E2E2E2E2E2E2E2E2E2F5E2E2E2E2E2E2E2E2E228E2E2BEE2E2E2E2E2E2E2E2E2E2BEE2F5E2BEF5EFBEE2F5E2BEE2E2E2E2E2E2E2E2E2E2E2E2E2E2E2E2E2BEE2DCDC28E2E2E228E2E2E2E2E2E2E2E2E2E2E2E2F5E2E2E2E2E2E2E2E2E2E2E2E2E2E2E2E2E2E2E2
310
E2E2E2E2E2E2E2E228E2E2E228E2E2E2E2E2E2E2E2E2E2E2E2E2E2E2E2E2E2E2E22DE2E2E2E2E2E2E2E2E2E2E2E2E228282828E2E2E2E2E2E2E2E2E2E2E2E2E2E2E2E2E2E2E2E2E2E2E2E2E2E2E2E2E2E2E2E2E2E2E2F5E2E2E2E2E2E2E2E2E228E2E2BEE2E2E2E2E2E2E2E2E2E2BEE2F5E2BEF5EFBEE2F5E2BEE2E2E2E2E2
310
E2E2E2E2E2E2E2E2E2E2E2E2BEE2DCDC28E2E2E228E2E2E2E2E2E2E2E2E2E2E2E2F5E2E2E2E2E2E2E2E2E2E2E2E2E2E2E2E2E2E2E2E2E2E2E2E2E2E2E228E2E2E228E2E2E2E2E2E2E2E2E2E2E2E2E2E2E2E2E2E2E2E22DE2E2E2E2E2E2E2E2E2E2E2E2E2E2DCDCDCE2E2E2E2E2E2E2E2E2E2E2E2E2E2E2E2E2E2E2E2E2E2E2
310
E2E2E2E2E2E2E2E2E2E2E2E2F5E2E2E2E2E2E2E2E2E228E2E2BEE2E2E2E2E2E2E2E2E2E2BEE2F5E2BEF5EFBEE2F5E2BEE2E2E2E2E2E2E2E2E2E2E2E2E2E2E2E2E2BEE2E2E228E2E2E228E2E2E2E2E2E2E2E2E2E2E2E2F5E2E2E2E2E2E2E2E2E2E2E2E2E2E2E2E2E2E2E2E2E2E2E2E2E2E2E228E2E2E228E2E2E2E2E2E2E2E2
310
E2E2E2E2E2E2E2E2E2E2E2E22DE2E2E2E2E2E2E2E2E2E2E2E2E2E2DCDCDCE2E2E2E2E2E2E2E2E2E2E2E2E2E2E2E2E2E2E2E2E2E2E2E2E2E2E2E2E2E2E2E2E2E2E2F5E2E2E2E2E2E2E2E2E228E2E2BEE2E2E2E2E2E2E2E2E2E2BEE2F5E2BEF5EFBEE2F5E2BEE2E2E2E2E2E2E2E2E2E2E2E2E2E2E2E2E2BEE2E2E228E2DCE228
310
E2E2E2E2E2E2E2E2E2E2E2E2F5E2E2E2E2E2E2E2E2E2E2E2E2E2E2E2E2E2E2E2E2E2E2E2E2E2E2E228E2E2E228E2E2E2E2E2E2E2E2E2E2E2E2E2E2E2E2E2E2E2E22DE2E2E2E2E2E2E2E2E2E2E2E2E2E2E2E2E2E2E2E2E2F5E2E2E2E2E2E2E2E2E2E2E2E2E2E2E2E2E2E2E2E2E2E2E2E2E2E2E2E2E2E2F5E2E2E2E2E2E2E2E2
310
E228E2E2BEE2E2E2E2E2E2E2E2E2E2BEE2F5E2BEF5EFBEE2F5E2BEE2E2E2E2E2E2E2E2E2E2E2E2E2E2E2E2E2BEE2E2E228E2DCDC28E2E2E2282828282828282828F5282828282828282828282828282828282828282828282828282828282828282D2D2DE2E2E2E2E2E2E2E2E2E2E2E2E2E2E2E2E2E22DE2E2E2E2E2E2E2E2
310
E2E2E2E2E2E2E2E2E2E2E22DF5F5F5E2E2E2E2E2E2E2E2E2E2E2E2E2E2E2E2E2E2E2E2E2E2E2E2E2E2E2E2E2F5E2E2E2E2E2E2E2DCDC28E2E2BEE2E2E2E2E2E2E2E2E2E2BEE2F5E2BEF5EFBEE2F5E2BEE2E2E2E2E2E2E2E2E2E2E2E2E2E2E2E2E2BEE2E2E228E2DCDC28E2E2E228E2E2E2E2E2E2E2E2F5E2E2E2E2E2E2E2E2
310
E2E2E2E2E2E2E2E2E2E2E2E2E2E2E2E2E2E2E228E2E2F52DF5E2E2E2E2E2E2E2E2E2E2E2E2E2E2E2E2E2E2E22DE2E2E2E2E2E2E2E2E2E2E2E2E2E2E2E2E2E2E2E2F5F5E2E2E2E2E2E2E2E2E2E2E2E2E2E2E2E2E2E2E2E2E2E2E2E2E2E2E2E2E2E2F5E2E2E2E2E2E2E2DCDC28E2E2BEE2E2E2E2E2E2E2E2E2E2BEE2F5E2BEF5
310
EFBEE2F5E2BEE2E2E2E2E2E2E2E2E2E2E2E2E2E2E2E2E2BEE2E2E228E2DCDC28E2E2E228E2E2E2E2E2E2E2E2F5E2E2E2E2E2E2E2E2E2E2E2E2E2E2E2E2E2E2E2E2E2E2E2E2E2E2E228E2E2E22DE2E2E2E2E2E2E2E2E2E2E2E2E2E2E2E2E2E2E2E22DE2E2E2E2E2E2E2E2E2E2E2E2E2E2E2E2E2E2E2E2E2F5E2E2E2E2E2E2E2
310
E2E2E2E2E2E2E2E2E2E2E2E2E2E2E2E2E2E2E2E2E2E2E2F5E2E2E2E2E2E2E2DCDC28E2E2BEE2E2E2E2E2E2E2E2E2E2BEE2F5E2BEF5EFBEE2F5BEBEE2E2E2E2E2E2E2E2E2E2E2E2E2E2E2E2E2BEE2E2E228E2E2E228E2E2E228E2E2E2E2E2E2E2E2F5E2E2E2E2E2E2E2E2E2E2E2E2E2E2E2E2E2E2E2E2E2E2E2E2E2E2E228E2
310
E2E2E2E2E2E2E2E2E2E2E2E2E2E2E2E2E2E2E2E2E2E2E22DE2E2E2E2E2E2E2E2E2E2E2E2E2E2E2E2E2E2E2E2E2E2E2E2E22DE2E2E2E2E2E2E2E2E2E2E2E2E2E2E2E2E2E2E2E2E2E2E2E2E2E2F5E2E2E2E2E2E2E2DCDC28E2E2BEE2E2E2E2E2E2E2E2E2E2BEBEF5E2BEF5EFBEE2F5E2BEE2E2E2E2E2E2E2E2E2E2E2E2E2E2E2
310
E2E2BEE2E2E228E2E2E228E2E2E228E2E2E2E2E2E2E2E2F5E2E2E2E2E2E2E2E2E2E2E2E2E2E2E2E2E2E2E2E2E2E2E2E2E2E2F52DF5E2E2E2E2E2E2E2E2E2E2E2E2E2E2E2E2E228282828282828E2E2E2E2E2E2E2E2E2E2E2E2E2E2E2E2E2E2E2E2E2E2E2E228F5F5E2E2E2E2E2E2E2E2E2E2E2E2E2E2E2E2E2E2E2E2E2E2E2
310
E2E2F5E2E2E2E2E2E2E2E2E228E2E2BEE2E2E2E2E2E2E2E2E2E2BEBEF5E2BEF5EFBEE2F5BEBEE2E2E2E2E2E2E2E2E2E2E2E2E2E2E2E2E2BEE2E2E228E2E2E228E2E2E228E2E2E22828282828F528282828282828282828282828282828282828282828282828282D2D2D2DE2E2E2E2E2E2E2E2E2E2E2E2E2E2E2E228E2DCDC
310
DCE228E2E2E2E2E2E2E2E2E2E2E2E2E2E2E2E2E2E2E2E2E2E2E22DF52DF52DE2E2E2E2E2E2E2E2E2E2E2E2E2E2E2E2E2E2E2E2E2E2E2E2F5E2E2E2E2E2E2E2E2E228E2E2BEE2E2E2E2E2E2E2E2E2E2BEBEF5E2BEF5EFBEE2F5E2BEE2E2E2E2E2E2E2E2E2E2E2E2E2E2E2E2E2BEE2E2E228E2E2E228E2E2E228E2E2E228E2E2
310
E2E2F5E2E2E2E2E2E2E2E2E2E2E2E2E2E2E2E2E2E2E2E2E2E2E2E2E2E2F52DF5E2E2E2E2E2E2E2E2E2E2E2E2E2E2E2E2E228E2DCDCDCE228E2E2E2E2E2E2E2E2E2E2E2E2E2E2E2E2E2E2E2E2E2E2E2E2F528F5E2E2E2E2E2E2E2E2E2E2E2E2E2E2E2E2E2E2E2E2E2E2E2E2E2F5E2E2E2E2E2E2E2E2E228E2E2BEE2E2E2E2E2
310
E2E2E2E2E2BEE2F5E2BEF5EFBEE2F5E2BEE2E2E2E2E2E2E2E2E2E2E2E2E2E2E2E2E2BEE2E2E228E2E2E228E2DCDC28E2E2E228E2E2E2E2F5E2E2E2E2E2E2E2E2E2E2E2E2E2E2E2E2E2E2E2E2E2E2E2E2E2E2E22DE2E2E2E2E2E2E2E2E2E2E2E2E2E2E2E2E2E228E2E2E2E2E228E2E2E2E2E2E2E2E2E2E2E2E2E2E2E2E2E2E2
310
E2E2E2E2E2E2E22D28E2E2E2E2E2E2E2E2E2E2E2E2E2E2E2E2E2E2E2E2E2E2E2E2E2F5E2E2E2E2E2E2E2E2E228E2E2BEE2E2E2E2E2E2E2E2E2E2BEE2F5E2BEF5EFBEE2F5E2BEE2E2E2E2E2E2E2E2E2E2E2E2E2E2E2E2E2BEE2E2E228E2E2E228E2DCDC28E2E2E228E2E2E2E2F5E2E2E2E2E2E2E2E2E2E2E2E2E2E2E2E2E2E2
310
E2E2E2E2E2E2E2E2E2E2E2E2E2E2E2E2E2E2E2E2E2E2E2E2E2E2E2E228E2E2E2E2E228E2E2E2E2E2E2E2E2E2E2E2E2E2E2E2E2E2E2E2E2E2E2E2E2E2E2E228282828E2E2E2E2E2E2E2E2E2E2E2E2E2E2E2E2E2E2E2E2E2F5E2E2E2E2E2E2E2E2E228E2E2BEE2E2E2E2E2E2E2E2E2E2BEE2F5E2BEF5EFBEE2F5E2BEE2E2E2E2
310
E2E2E2E2E2E2E2E2E2E2E2E2E2BEE2E2E228E2E2E228E2DCDC28E2DCDC28E2E2E2E2F5E2E2E2E2E2E2E2E2E2E2E2E2E2E2E2E2E2E2E2E2E2E2E2E2E2E2E2E2E2E2E2E2E2E2E2E2E2E2E2E2E22828282828282828E2E2E228E2E2E2E2E2E2E2E2E2E2E2E2E2E2E2E2E2E2E2E2E2E2E2E2E2E2E2E2DCDCDCE2E2E2E2E2E2E2E2
310
E2E2E2E2E2E2E2E2E2E2E2E2E2F5E2E2E2E2E2E2E2E2E228E2E2BEE2E2E2E2E2E2E2E2E2E2BEE2F5E2BEF5EFBEE2F5E2BEE2E2E2E2E2E2E2E2E2E2E2E2E2E2E2E2E2BEE2E2E228E2E2E228E2E2E228E2DCDCDCE2E2E2E2F5E2E2E2E2E2E2E2E2E2E2E2E2E2E2E2E2E2E2E2E2E2E2E2E2E2E2E2E2E2E2E2E2E2E2E2E2E2E2E2
310
28E2DCDCE2E22828E2E2E2E2E228E2E2E2E2E2E2E2E2E2E2E2E2E2E2E2E2E2E2E2E2E2E2E2E2E2E2E2E2DCDCDCE2E2E2E2E2E2E2E2E2E2E2E2E2E2E2E2E2E2E2E2E2F5E2E2E2E2E2E2E2E2E228E2E2BEE2E2E2E2E2E2E2E2E2E2BEE2F5E2BEF5EFBEE2F5E2BEE2E2E2E2E2E2E2E2E2E2E2E2E2E2E2E2E2BEE2E2E228E2E2E2
310
28E2E2E228E2DCDCDCE2E2E2E2F5E2E2E2E2E2E2E2E2E2E2E2E2E2E2E2E2E2E2E2E2E2E2E2E2E2E2E2E2E2E2E2E2E2E2E2E2E2DCDCDCE2E2DCE2E22828E2E2E2E2E22DE2E2E2E2E2E2E2E2E2E2E2E2E2E2E2E2E2E228E2E2E2E2E2E2E2E2E2E2E2E2E2E2E2E2E2E2E2E2E2E2E2E2E2E2E2E2E2E2E2E2E2F5E2E2E2E2E2E2E2
310
E2E228E2E2BEE2E2E2E2E2E2E2E2E2E2BEE2F5E2BEF5EFBEE2F5E2BEE2E2E2E2E2E2E2E2E2E2E2E2E2E2E2E2E2BEE2E2E228E2E2E228E2E2E228E2E2E228E2E2E2E2F5E2E2E2E2E2E2E2E2E2E2E2E2E2E2E2E2E2E2E2E2E2E2E2E2E2E2E2E2E2E2E2E2E2E2E2E2E2E2E228E2E2E2E2E22828E2E2E2E2E22DE2E2E2E2E2E2E2
310
E2E2E2E2E2E2E2E2E2DCDC28E2E2E2E2E2E2E2E2E2E2E2E2E2E2E2E2E2E2E2E2E2E2E2E2E2E2E2E2E2E2E2E2E2F5E2E2E2E2E2E2E2E2E228E2E2BEE2E2E2E2E2E2E2E2E2E2BEE2F5E2BEF5EFBEE2F5E2BEE2E2E2E2E2E2E2E2E2E2E2E2E2E2E2E2E2BEE2E2E228E2E2E228E2E2E228E2E2E228E2E2E2E2F5E2E2E2E2E2E2E2
310
E2E2E2E2E2E2E2E2E2E2E2E2E2E2E2E2E2E2E2E2E2E2E2E2E2E2E2E2E2E2E2E228E2E2E2E2E22828C3C3C3C3C3C3C3C3C3C3C3C3E2E2E2E2E2E2E2E2E2E2DCDC28E2E2E2E2E2E2E2E2E2E2E2E2E2E2E2E2E2E2E2E2E2E2E2E2E2E2E2E2E2E2E2E2E2F5E2E2E2E2E2E2E2E2E228E2E2BEE2E2E2E2E2E2E2E2E2E2BEE2F5E2BE
310
F5EFBEE2F5BEBEE2E2E2E2E2E2E2E2E2E2E2E2E2E2E2E2E2BEE2E22828E2E2E228E2E2E228E2E2E228E2E2E2E2F5E2E2E2E2E2E2E2E2E2E2E2E2E2E2E2E2E2E2E2E2E2E2E2E2E2E2E2E2E2E2E2E2E2E2E2E2E2E2E22828282828282828C3E2E2E2E22DE2E2E2E2E2C3F5F5E2E2E2E2E2E2E2E2E2E228E2E2E2E2E2E2E2E2E2
310
E2E2E2E2E2E2E2E2E2E2E2E2E2E2E2E2E2E2E2E2E2E2E2E2F5E2E2E2E2E2E2E2E2E228E2E2BEE2E2E2E2E2E2E2E2E2E2BEBEF5E2BEF5EFBEE2F5E2BEE2E2E2E2E2E2E2E2E2E2E2E2E2E2E2E2E2BEE2E2282828282828282828282828282828282828F528282828282828282828282828282828282828282828282828282828
310
282828282828282828282828282828F5F5282828F5F5F5F5F5F5F5F5F5F5282828282828282828282828282828E2E2E2E2E2E2E2E2E2E2E2E2E2E2E2E2E2E2E2E2E2E2E2E2E2E2E2E2E2E2E2E2F5E2E2E2E2E2E2E2E2E228E2E2BEE2E2E2E2E2E2E2E2E2E2BEE2F5E2BEF5EFBEE2F5E2BEE2E2E2E2E2E2E2E2E2E2E2E2E2E2
310
E2E2E2BEE2E22828E2E2E2E2E2E2E2E2E2E2E2E2E2E2E2E2F5E2E2E2E2E2E2E2E2E2E2E2E2E2E2E2E2E2E2E2E2E2E2E2E2E2E2E2E2E2E2E2E2E2E2E2E2E2E2E228E2E2F5E2E2E22828E2E2E2E228E2E2E2E2E228E2E2E2F5F5E2E2E2E2E2E2E228E2E2E2E2E2E2E2E2E2E2E2E2E2E2E2E2E2E2E2E2E2E2E2E2E2E2E2E2E2E2
310
E2E2E2F5E2E2E2E2E2E2E2E2E228E2E2BEE2E2E2E2E2E2E2E2E2E2BEE2F5E2BEF5EFBEE2F5E2BEE2E2E2E2E2E2E2E2E2E2E2E2E2E2E2E2E2BEE2E2E228E2E2E2E2E2E2E2E2E2E2E2E2E2E2E2E2F5E2E2E2E2E2E2E2E2E2E2E2E2E2E2E2E2E2E2E2E2E2E2E2E2E2E2E2E2E2E2E2E2E2E2E2E2E2E2E228E2F52D2D2D2D28282D
310
2D2D2D282D2D2D2D2D28282D2D2D28282828282828282828E2E2E2E2E2E2E2E2E2E2E2E2E2E2E2E2E2E2E2E2E2E2E2E2E2E2E2E2E2E2E2E2F5E2E2E2E2E2E2E2E2E228E2E2BEE2E2E2E2E2E2E2E2E2E2BEE2F5E2BEF5EFBEE2F5E2BEE2E2E2E2E2E2E2E2E2E2E2E2E2E2E2E2E2BEE2E2E228E2E2E2E2E2E2E2E2E2E2E2E2E2
310
E2E2E2F5E2E2E2E2E2E2E2E2E2E2E2E2E2E2E2E2E2E2E2E2E2E2E2E2E2E2E2E2E2E2E2E2E2E2E2E2E2E2E2F5F5E2E2E2E2E22828E2E2E2E228E2E2E2E2E22828E2E2E2E2E2F5E2E2E2E2E228E2E2E2E2E2E2E2E2E2E2E2E2E2E2E2E2E2E2E2E2E2E2E2E2E2E2E2E2E2E2E2E2E2F5E2E2E2E2E2E2E2E2E228E2E2BEE2E2E2E2
310
E2E2E2E2E2E2BEE2F5E2BEF5EFBEE2F5E2BEE2E2E2E2E2E2E2E2E2E2E2E2E2E2E2E2E2BEE2E2E228E2E2E2E2E2E2E2E2E2E2E2E2E2E2E2E2F5E2E2E2E2E2E2E2E2E2E2E2E2E2E2E2E2E2E2E2E2E2E2E2E2E2E2E2E2E2E2E2E2E2E2E2E2E2E2F5E2E2E2E2E2E2E22828E2E2E2E228E2E2E2E2E22828E2E2E2E2E2E2F5F5E2E2
310
E228E2E2E2E2E2E2E2E2E2E2E2E2E2E2E2E2E2E2E2E2E2E2E2E2E2E2E2E2E2E2E2E2E2F5E2E2E2E2E2E2E2E2E228E2E2BEE2E2E2E2E2E2E2E2E2E2BEE2F5E2BEF5EFBEE2F5E2BEE2E2E2E2E2E2E2E2E2E2E2E2E2E2E2E2E2BEE2DCDC28E2E2E2E2E2E2E2E2E2E2E2E2E2E2E2E2F5E2E2E2E2E2E2E2E2E2E2E2E2E2E2E2E2E2
310
E2E2E2E2E2E2E2E2E2E2E2E2E2E2E2E2E2E2E2F5F5E2E2E2E2E2E2E2E22828E2E2E2E228E2E2E2E2E228E228E2E2E2E2E2E2E2F5E2E2E2E2E2E2E2E2E2E2E2E2E2E2E2E2E2E2E2E2E2E2E2E2E2E2E2E2E2E2E2E2E2E2E2E2F5E2E2E2E2E2E2E2E2E228E2E2BEE2E2E2E2E2E2E2E2E2E2BEE2F5E2BEF5EFBEE2F5E2BEE2E2E2
310
E2E2E2E2E2E2E2E2E2E2E2E2E2E2BEE2DCDC28E2E2E2E2E2E2E2E2E2E2E2E2E2E2E2E2F5E2E2E2E2E2E2E2E2E2E2E2E2E2E2E2E2E2E2E2E2E2E2E2E2E2E2E2E2E2E2E2E2E2E2E2F5E2E2E2E2E2E2E2E2E2E22828E2E2E2E228E2E2E2E2E228E228E2E2E2E2E2E2E2E2F5E2E2E2E2E2E2E2E2E2E2E2E2E2E2E2E2E2E2E2E2E2
310
E2E2E2E2E2E2E2E2E2E2E2E2E2E2F5E2E2E2E2E2E2E2E2E228E2E2BEE2E2E2E2E2E2E2E2E2E2BEE2F5E2BEF5EFBEE2F5E2BEE2E2E2E2E2E2E2E2E2E2E2E2E2E2E2E2E2BEE2E2E228E2E2E2E2E2E2E2E2E2E2E2E2E2E2E2E2F5E2E2E2E2E2E2E2E2E2E2E2E2E2E2E2E2E2E2E2E2E2E2E2E2E2E2E2E2E2E2E2E2E2F5F5E2E2E2
310
E2E2E2E2E2E2E2E228282828282828E2E2E2E2E228E228E2E2E2E2E2E2E2E2E2F5F5E2E2E2E2E2E2E2E2E2E2E2E2E2E2E2E2E2E2E2E2E2E2E2E2E2E2E2E2E2E2E2E2E2F5E2E2E2E2E2E2E2E2E228E2E2BEE2E2E2E2E2E2E2E2E2E2BEE2F5E2BEF5EFBEE2F5BEBEE2E2E2E2E2E2E2E2E2E2E2E2E2E2E2E2E2BEE2E2E228E2E2
310
E2E2E2E2E2E2E2E2E2E2E2E2E2E2F5E2E2E2E2E2E2E2E2E2E2E2E2E2E2E2E2E2E2E2E2E2E2E2E2E2E2E2E2E2E2E2E2F5E2E2E2E2E2E2E2E2E2E2E2E2E22828E2DCDCDCE2E2E2E2E2E228E228E2E2E2E2E2E2E2E2E2E2E2F5E2E2E2E2E2E2E2E2E2E2E2E2E2E2E2E2E2E2E2E2E2E2E2E2E2E2E2E2E2E2E2E2F5E2E2E2E2E2E2
310
E2E2E228E2E2BEE2E2E2E2E2E2E2E2E2E2BEBEF5E2BEF5EFBEE2F5BEBEE2E2E2E2E2E2E2E2E2E2E2E2E2E2E2E2E2BEE2E2E228E2E2E2E2E2E2E2E2E2E2E2E2E2E2E2E2F5E2E2E2E2E2E2E2E2E2E2E2E2E2E2E2E2E2E2E2E2E2E2E2E2E2E2E2E2E2E2E2F5E2E2E2E2E2E2E2E2E2E2E2E2E2E22828E2DCDCE2E2E2E2E2E2E228
310
E2E228E2E2E2E2E2E2E2E2E2E2E2F5E2E2E2E2E2E2E2E2E2E2E2E2E2E2E2E2E2E2E2E2E2E2E2E2E2E2E2E2E2E2E2F5E2E2E2E2E2E2E2E2E228E2E2BEE2E2E2E2E2E2E2E2E2E2BEBEF5E2BEF5EFBEE2F5E2BEE2E2E2E2E2E2E2E2E2E2E2E2E2E2E2E2E2BEE2E22828E2E2E2E2E2E2E2E2E2E2E2E2E2E2E2E2F5E2E2E2E2E2E2
310
E2E2E2E2E2E2E2E2E2E2E2E2E2E2E2E2E2E2E2E2E2E2E2F5F5E2E2E2E2E2E2E2E2E2E2E2E2E2E2E22828E2E2E2E2E2E2E2E2E2E228E2E228E2E2E2E2E2E2E2E2E2E2E2E2F5F5E2E2E2E2E2E2E2E2E2E2E2E2E2E2E2E2E2E2E2E2E2E2E2E2E2E2E2E2E2F5E2E2E2E2E2E2E2E2E228E2E2BEE2E2E2E2E2E2E2E2E2E2BEE2F5E2
310
BEF5EFBEE2F5E2BEE2E2E2E2E2E2E2E2E2E2E2E2E2E2E2E2E2BEE2E2282828282828282828282828282828282828F5F5F5F5F5F5F5F5F5F5F5F5F5F5F5F5F5F5F5F5F5F5F5F5F5F5F5F5F5F5E2E2E2E2E2E2E2E2E2E2E2E2E22828282828282828282828282828282828E2E228E2E2E2E2E2E2E2E2E2E2E2E2E2E2F5F5F5F5
310
F5F5F5F5F5F5F5F5F5F5F5F5F5F5F5F5F5F5F5F5F5F5F5F5F5F528282828282828282828E2E2BEE2E2E2E2E2E2E2E2E2E2BEE2F5E2BEF5EFBEE2F5E2BEE2E2E2E2E2E2E2E2E2E2E2E2E2E2E2E2E2BEE2E2E2E2E2E2E2E2E2E2E2E2E2E2E2E2E2E2E2E2E2E2E2E2E2E2E2E2E2E2E2E2E2E2E2E2E2E2E2E2E2E2E2E2E2E2E2E2
310
E2E2E2E2E2E2E2E2E2E2E2E2E2E2E2E2DCE2E22828E2E2E2E2DCDCE2E2E2E228E2E228E2E2E2E2E2E2E2E2E2E2E2E2E2E228E2E2E2E2E2E2E2E2E2E2E2E2E2E2E2E2E2E2E2E2E2E2E2E2E2E2E2E228E2E2E2E2E2E2E2E2E2E2E2E2BEE2E2E2E2E2E2E2E2E2E2BEE2F5E2BEF5EFBEE2F5E2BEE2E2E2E2E2E2E2E2E2E2E2E2E2
310
E2E2E2E2BEE2E2E2E2E2E2E2E2E2E2E2E2E2E2E2E2E2E2E2E2E2E2E2E2E2E2E2E2E2E2E2E2E2E2E2E2E2E2E2E2E2E2E2E2E2E2E2E2E2E2E2E2E2E2E2E2E2E2E2E2E2E2E2DCDCE2E2E2E2E2E2E2E2DCDCE2E2E2E2E2E2E2E228E2E2E2E2E2E2E2E2E2E2E2E2E228E2E2E2E2E2E2E2E2E2E2E2E2E2E2E2E2E2E2E2E2E2E2E2E2
310
E2E2E2E228E2E2E2E2E2E2E2E2E2E2E2E2BEE2E2E2E2E2E2E2E2E2E2BEE2F5E2BEF5EFBEE2F5E2BEE2E2E2E2E2E2E2E2E2E2E2E2E2E2E2E2E2BEE2E2E2E2E2E2E2E2E2E2E2E2E2E2E2E2E2E2E2E2CACAE2E2E2E2E2E2E2CACAE2E2E2E2E2E2E2E2E2E2E2E2E2E2E2E2E2E2E2E2E2E2E2E2E2E2E2E2E2E2E2E2E2E2E2E2E2E2
310
E2E2E2E2E2E2E2E2E2E2E2E2E2E228E2E2E2E2E2E2E2E2E2E2E2E2E228E2E2E2E2E2E2E2E2E2E2E2E2E2E2E2E2E2E2E2E2E2E2E2E2E2E2E2E228E2E2E2E2E2E2E2E2E2E2E2E2BEE2E2E2E2E2E2E2E2E2E2BEE2F5E2BEF5EFBEE2F5E2BEE2E2E2E2E2E2E2E2E2E2E2E2E2E2E2E2E2BEE2E2E2E2E2E2E2E2E2E2E2E2E2E2E2E2
310
E2CAE2E2CACACACACACACACACACACAE2CACACACAE2CACACACACAE2CAE2CACACAE2CAE2E2E2E2E2E2E2E2E2E2E2E2E2E2E2E2E2E2E2E2E2E2E2E2E2E2E2E2E2E2E2E2E228E2E2E2E2E2E2E2E2E2E2E2E2E228E2E2E2E2E2E2E2E2E2E2E2E2E2E2E2E2E2E2E2E2E2E2E2E2E2E2E2E228E2E2E2E2E2E2E2E2E2E2E2E2BEE2E2E2
310
E2E2E2E2E2E2E2BEE2F5E2BEF5EFBEE2F5E2BEE2E2E2E2E2E2E2E2E2E2E2E2E2E2E2E2E2BEE2E2E2E2E2E2E2E2E2E2E2E2E2E2E2E2E2CACACACACACACACACACACACACACAE2CAE2E2CAE2CACACACACAE2CAE2CACACAE2CAE2E2E2E2E2E2E2E2E2E2E2E2E2E2E2E2E2E2E2E2E2E2E2E2E2E2E2E2E2E2E2E2E228E2E2E2E2E2E2
310
E2E2E2E2E2E2E2282828282828282828282828282828282828282828282828282828282828E2E2E2E2E2E2E2E2E2E2E2E2BEE2E2E2E2E2E2E2E2E2E2BEE2F5E2BEF5EFBEE2F5E2BEE2E2E2E2E2E2E2E2E2E2E2E2E2E2E2E2E2BEE2E2E2E2E2E2E2E2E2E2E2E2E2E2E2E2CACAE2E2CACACACACACACACACACACAE2CACAE2CACA
310
E2CACACACACACACAE2CACACACAE2E2E2E2E2E2E2E2E2E2E2E2E2E2E2E2E2E2E2E2E2E2E2E2E2E2E2E2E2E2E2E2E2E228E2E2E2E2E2E2E2E2E2E2E2E2E2E2E2E2E2E2E2E2E2E2E2E2E2E2DCDCDCE2E2E2E2E2E2E2E2E2E2E2E2E2E2E2E2E2E2E2E2E2E2E2E2E2BEE2E2E2E2E2E2E2E2E2E2BEE2F5E2BEF5EFBEE2F5BEBEE2E2
310
E2E2E2E2E2E2E2E2E2E2E2E2E2E2E2BEE2E2E2E2E2E2E2E2E2E2E2E2E2E2E2E2E2CAE2E2E2E2CAE2E2CAE2E2CAE2E2E2CACACACAE2E2E2E2E2CAE2E2E2E2CACAE2CAE2E2E2E2E2E2E2E2E2E2E2E2E2E2E2E2E2E2E2E2E2E2E2E2E2E2E2E2E2E2E2E2E2E22828282828282828282828282828282828282828282828E2E2E2E2
310
DCDCDCE2E2E2E2E2E2E2E2E2E2E2E2E2E2E2E2E2E2E2E2E2E2E2E2E2BEE2E2E2E2E2E2E2E2E2E2BEBEF5E2BEF5EFBEE2F5E2BEE2E2E2E2E2E2E2E2E2E2E2E2E2E2E2E2E2BEE2E2E2E2E2E2E2E2E2E2E2E2E2E2E2E2E2E2E2E2E2E2E2E2E2E2E2E2E2E2E2E2E2E2E2E2E2E2E2E2E2E2E2E2E2E2E2E2E2E2E2E2E2E2E2E2E2E2
310
E2E2E2E2E2E2E2E2E2E2E2E2E2E2E2E2E2E2E2E2E2E2E2E2E2E2E2DCDCDCDCDCDCDCDCDCDCDCDCDCDCDCDCDCDCDCDCDCDCE2E2E2E2E2E2E2E2E2E2E2E2E2E2E2E2E2E2E2E2E2E2E2E2E2E2E2E2E2E2E2E2BEE2E2E2E2E2E2E2E2E2E2BEE2F5E2BEF5EFBEE2F5E2BEE2E2E2E2E2E2E2E2E2E2E2E2E2E2E2E2E2BEE2E2E2E2E2
310
E2E2E2E2E2E2E2E2E2E2E2E2E2E2E2E2E2E2E2E2E2E2E2E2E2E2E2E2E2E2E2E2E2E2E2E2E2E2E2E2E2E2E2E2E2E2E2E2E2E2E2E2E2E2E2E2E2E2E2E2E2E2E2E2E2E2E2E2E2E2E2E2E2E2E2E2E2E2E2E2DCDCDCDCDCDCDCDCDCDCDCDCDCDCDCDCDCDCDCDCDCDCE2E2E2E2E2E2E2E2E2E2E2E2E2E2E2E2E2E2E2E2E2E2E2E2E2
310
E2E2E2E2E2E2E2BEE2E2E2E2E2E2E2E2E2E2BEE2F5E2BEF5EFBEE2F5E2BEE2E2E2E2E2E2E2E2E2E2E2E2E2E2E2E2E2BEE2E2E2E2E2E2E2E2E2E2E2E2E2E2E2E2E2E2E2E2E2E2E2E2E2E2E2E2E2E2E2E2E2E2E2E2E2E2E2E2E2E2E2E2E2E2E2E2E2E2E2E2E2E2E2E2E2E2E2E2E2E2E2E2E2E2E2E2E2E2E2E2E2E2E2E2E2E2E2
310
E2E2E2E2E2E2E2E2E2E2E2E2E2E2E2E2E2E2E2E2E2E2E2E2DCE2E2DCE2E2E2E2E2E2E2E2E2E2E2E2E2E2E2E2E2E2E2E2E2E2E2E2E2E2E2E2E2E2E2E2BEE2E2E2E2E2E2E2E2E2E2BEE2F5E2BEF5EFBEE2F5E2BEE2E2E2E2E2E2E2E2E2E2E2E2E2E2E2E2E2BEE2E2E2E2E2E2E2E2E2E2E2E2E2E2E2E2E2E2E2E2E2E2E2E2E2E2
310
E2E2E2E2E2E2E2E2E2E2E2E2E2E2E2E2E2E2E2E2E2E2E2E2E2E2E2E2E2E2E2E2E2E2E2E2E2E2E2E2E2E2E2E2E2E2E2E2E2E2E2E2E2E2E2E2E2E2E2E2E2E2E2E2E2E2E2E2E2E2E2E2E2E2E2E2E2E2E2E2E2E2E2E2E2E2E2E2E2E2E2E2E2E2E2E2E2E2E2E2E2E2E2E2E2E2E2E2E2E2E2E2E2BEE2E2E2E2E2E2E2E2E2E2BEE2F5
310
E2BEF5EFBEE2F5E2BEE2E2E2E2E2E2E2E2E2E2E2E2E2E2E2E2E2BEE2E2E2E2E2E2E2E2E2E2E2E2E2E2E2E2E2E2E2E2E2E2E2E2E2E2E2E2E2E2E2E2E2E2E2E2E2E2E2E2E2E2E2E2E2E2E2E2E2E2E2E2E2E2E2E2E2E2E2E2E2E2E2E2E2E2E2E2E2E2E2E2E2E2E2E2E2E2E2E2E2E2E2E2E2E2E2E2E2E2E2E2E2E2E2E2E2E2E2E2
310
E2E2E2E2E2E2E2E2E2E2E2E2E2E2E2E2E2E2E2E2E2E2E2E2E2E2E2E2E2E2E2E2E2E2E2E2E2E2E2BEE2E2E2E2E2E2E2E2E2E2BEE2F5E2BEF5EFBEE2F5E2BEE2E2E2E2E2E2E2E2E2E2E2E2E2E2E2E2E2BEE2E2E2E2E2E2E2E2E2E2E2E2E2E2E2E2E2E2E2E2E2E2E2E2E2E2E2E2E2E2E2E2E2E2E2E2E2E2E2E2E2E2E2E2E2E2E2
310
E2E2E2E2E2E2E2E2E2E2E2E2E2E2E2E2E2E2E2E2E2E2E2E2E2E2E2E2E2E2E2E2E2E2E2E2E2E2E2E2E2E2E2E2E2E2E2E2E2E2E2E2E2E2E2E2E2E2E2E2E2E2E2E2E2E2E2E2E2E2E2E2E2E2E2E2E2E2E2E2E2E2E2E2E2E2E2E2E2E2E2E2BEE2E2E2E2E2E2E2E2E2E2BEE2F5E2BEF5EFBEE2F5E2BEE2E2E2E2E2E2E2E2E2E2E2E2
310
E2E2E2E2E2BEE2E2E2E2E2E2E2E2E2E2E2E2E2E2E2E2E2E2E2E2E2E2E2E2E2E2E2E2E2E2E2E2E2E2E2E2E2E2E2E2E2E2E2E2E2E2E2E2E2E2E2E2E2E2E2E2E2E2E2E2E2E2E2E2E2E2E2E2E2E2E2E2E2E2E2E2E2E2E2E2E2E2E2E2E2E2E2E2E2E2E2E2E2E2E2E2E2E2E2E2E2E2E2E2E2E2E2E2E2E2E2E2E2E2E2E2E2E2E2E2E2
310
E2E2E2E2E2E2E2E2E2E2E2E2E2E2E2E2E2E2BEE2E2E2E2E2E2E2E2E2E2BEE2F5E2BEF5EFBEE2F5E2BEE2E2E2E2E2E2E2E2E2E2E2E2E2E2E2E2E2BEE2E2E2E2E2E2E2E2E2E2E2E2E2E2E2E2E2E2E2E2E2E2E2E2E2E2E2E2E2E2E2E2E2E2E2E2E2E2E2E2E2E2E2E2E2E2E2E2E2E2E2E2E2E2E2E2E2E2E2E2E2E2E2E2E2E2E2E2
310
E2E2E2E2E2E2E2E2E2E2E2E2E2E2E2E2E2E2E2E2E2E2E2E2E2E2E2E2E2E2E2E2E2E2E2E2E2E2E2E2E2E2E2E2E2E2E2E2E2E2E2E2E2E2E2E2E2E2E2E2E2E2E2E2E2E2E2E2E2E2E2BEE2E2E2E2E2E2E2E2E2E2BEE2F5E2BEF5EFBEE2F5BEBEE2E2E2E2E2E2E2E2E2E2E2E2E2E2E2E2E2BEE2E2E2E2E2E2E2E2E2E2E2E2E2E2E2
310
E2E2E2E2E2E2E2E2E2E2E2E2E2E2E2E2E2E2E2E2E2E2E2E2E2E2E2E2E2E2E2E2E2E2E2E2E2E2E2E2E2E2E2E2E2E2E2E2E2E2E2E2E2E2E2E2E2E2E2E2E2E2E2E2E2E2E2E2E2E2E2E2E2E2E2E2E2E2E2E2E2E2E2E2E2E2E2E2E2E2E2E2E2E2E2E2E2E2E2E2E2E2E2E2E2E2E2E2E2E2E2E2E2E2E2E2E2E2E2E2E2E2E2E2BEE2E2
310
E2E2E2E2E2E2E2E2BEBEF5E2BEF5EFBEE2F5BEBEE2E2E2E2E2E2E2E2E2E2E2E2E2E2E2E2E2BEE2E2E2E2E2E2E2E2E2E2E2E2E2E2E2E2E2E2E2E2E2E2E2E2E2E2E2E2E2E2E2E2E2E2E2E2E2E2E2E2E2E2E2E2E2E2E2E2E2E2E2E2E2E2E2E2E2E2E2E2E2E2E2E2E2E2E2E2E2E2E2E2E2E2E2E2E2E2E2E2E2E2E2E2E2E2E2E2E2
310
E2E2E2E2E2E2E2E2E2E2E2E2E2E2E2E2E2E2E2E2E2E2E2E2E2E2E2E2E2E2E2E2E2E2E2E2E2E2E2E2E2E2E2E2E2E2E2E2E2E2BEE2E2E2E2E2E2E2E2E2E2BEBEF5E2BEF5EFBEE2F5BEBEE2E2E2E2E2E2E2E2E2E2E2E2E2E2E2E2E2BEE2E2E2E2E2E2E2E2E2E2E2E2E2E2E2E2E2E2E2E2E2E2E2E2E2E2E2E2E2E2E2E2E2E2E2E2
310
E2E2E2E2E2E2E2E2E2E2E2E2E2E2E2E2E2E2E2E2E2E2E2E2E2E2E2E2E2E2E2E2E2E2E2E2E2E2E2E2E2E2E2E2E2E2E2E2E2E2E2E2E2E2E2E2E2E2E2E2E2E2E2E2E2E2E2E2E2E2E2E2E2E2E2E2E2E2E2E2E2E2E2E2E2E2E2E2E2E2E2E2E2E2E2E2E2E2E2E2E2E2E2BEE2E2E2E2E2E2E2E2E2E2BEBEF5E2BEF5EFBEE2F5E2BEE2
310
E2E2E2E2E2E2E2E2E2E2E2E2E2E2E2E2BEE2E2E2E2E2E2E2E2E2E2E2E2E2E2E2E2E2E2E2E2E2E2E2E2E2E2E2E2E2E2E2E2E2E2E2E2E2E2E2E2E2E2E2E2E2E2E2E2E2E2E2E2E2E2E2E2E2E2E2E2E2E2E2E2E2E2E2E2E2E2E2E2E2E2E2E2E2E2E2E2E2E2E2E2E2E2E2E2E2E2E2E2E2E2E2E2E2E2E2E2E2E2E2E2E2E2E2E2E2E2
310
E2E2E2E2E2E2E2E2E2E2E2E2E2E2E2E2E2E2E2E2E2E2E2E2E2E2E2E2E2BEE2E2E2E2E2E2E2E2E2E2BEE2F5E2BEF5EFBEE2F5E2BEE2E2E2E2E2E2E2E2E2E2E2E2E2E2E2E2E2BEBEBEBEBEBEBEBEBEBEBEBEBEBEBEBEBEBEBEBEBEBEBEBEBEBEBEBEBEBEBEBEBEBEBEBEBEBEBEBEBEBEBEBEBEBEBEBEBEBEBEBEBEBEBEBEBEBE
310
BEBEBEBEBEBEBEBEBEBEBEBEBEBEBEBEBEBEBEBEBEBEBEBEBEBEBEBEBEBEBEBEBEBEBEBEBEBEBEBEBEBEBEBEBEBEBEBEBEBEBEBEBEBEBEBEBEBEBEBEBEBEBEBEBEBEBEBEBEBEBEBEBEBEBEBEBEBEBEBEBEBEBEE2E2E2E2E2E2E2E2E2E2BEE2F5E2BEF5EFBEE2F5E2BEE2E2E2E2E2E2E2E2E2E2E2E2E2E2E2E2E2BEBEBEBEBE
310
BEBEBEBEBEBEBEBEBEBEBEBEBEBEBEBEBEBEBEBEBEBEBEBEBEBEBEBEBEBEBEBEBEBEBEBEBEBEBEBEBEBEBEBEBEBEBEBEBEBEBEBEBEBEBEBEBEBEBEBEBEBEBEBEBEBEBEBEBEBEBEBEBEBEBEBEBEBEBEBEBEBEBEBEBEBEBEBEBEBEBEBEBEBEBEBEBEBEBEBEBEBEBEBEBEBEBEBEBEBEBEBEBEBEBEBEBEBEBEBEBEBEBEBEBEBEBE
310
BEBEBEBEBEBEBEBEBEE2E2E2E2E2E2E2E2E2E2BEE2F5E2BEF5EFBEE2F5E2BEE2E2E2E2E2E2E2E2E2E2E2E2E2E2E2E2E2E2E2E2E2E2E2E2E2E2E2E2E2E2E2E2E2E2E2E2E2E2E2E2E2E2E2E2E2E2E2E2E2E2E2E2E2E2E2E2E2E2E2E2E2E2E2E2E2E2E2E2E2E2E2E2E2E2E2E2E2E2E2E2E2E2E2E2E2E2E2E2E2E2E2E2E2E2E2E2
310
E2E2E2E2E2E2E2E2E2E2E2E2E2E2E2E2E2E2E2E2E2E2E2E2E2E2E2E2E2E2E2E2E2E2E2E2E2E2E2E2E2E2E2E2E2E2E2E2E2E2E2E2E2E2E2E2E2E2E2E2E2E2E2E2E2E2E2E2E2E2E2E2BEE2F5E2BEF5EFBEE2F5E2BEE2E2E2E2E2E2E2E2E2E2E2E2E2E2E2E2E2E2E2E2E2E2E2E2E2E2E2E2E2E2E2E2E2E2E2E2E2E2E2E2E2E2E2
310
E2E2E2E2E2E2E2E2E2E2E2E2E2E2E2E2E2E2E2E2E2E2E2E2E2E2E2E2E2E2E2E2E2E2E2E2E2E2E2E2E2E2E2E2E2E2E2E2E2E2E2E2E2E2E2E2E2E2E2E2E2E2E2E2E2E2E2E2E2E2E2E2E2E2E2E2E2E2E2E2E2E2E2E2E2E2E2E2E2E2E2E2E2E2E2E2E2E2E2E2E2E2E2E2E2E2E2E2E2E2E2E2E2E2E2E2E2E2E2E2E2E2E2E2E2BEE2
310
F5E2BEF5EFBEE2F5E2BEE2E2E2E2E2E2E2E2E2E2E2E2E2E2E2E2E2E2E2E2E2E2E2E2E2E2E2E2E2E2E2E2E2E2E2E2E2E2E2E2E2E2E2E2E2E2E2E2E2E2E2E2E2E2E2E2E2E2E2E2E2E2E2E2E2E2E2E2E2E2E2E2E2E2E2E2E2E2E2E2E2E2E2E2E2E2E2E2E2E2E2E2E2E2E2E2E2E2E2E2E2E2E2E2E2E2E2E2E2E2E2E2E2E2E2E2E2
310
E2E2E2E2E2E2E2E2E2E2E2E2E2E2E2E2E2E2E2E2E2E2E2E2E2E2E2E2E2E2E2E2E2E2E2E2E2E2E2E2E2E2E2E2E2E2E2E2E2E2E2BEE2F5E2BEF5EFBEE2F5E2BEE2E2E2E2E2E2E2E2E2E2E2E2E2E2E2E2E2E2E2E2E2E2E2E2E2E2E2E2E2E2E2E2E2E2E2E2E2E2E2E2E2E2E2E2E2E2E2E2E2E2E2E2E2E2E2E2E2E2E2E2E2E2E2E2
310
E2E2E2E2E2E2E2E2E2E2E2E2E2E2E2E2E2E2E2E2E2E2E2E2E2E2E2E2E2E2E2E2E2E2E2E2E2E2E2E2E2E2E2E2E2E2E2E2E2E2E2E2E2E2E2E2E2E2E2E2E2E2E2E2E2E2E2E2E2E2E2E2E2E2E2E2E2E2E2E2E2E2E2E2E2E2E2E2E2E2E2E2E2E2E2E2E2E2E2E2E2E2E2E2BEE2F5E2BEF5EFBEE2F5E2BEE2E2E2E2E2E2E2E2E2E2E2
310
E2E2E2E2E2E2E2E2E2E2E2E2E2E2E2E2E2E2E2E2E2E2E2E2E2E2E2E2E2E2E2E2E2E2E2E2E2E2E2E2E2E2E2E2E2E2E2E2E2E2E2E2E2E2E2E2E2E2E2E2E2E2E2E2E2E2E2E2E2E2E2E2E2E2E2E2E2E2E2E2E2E2E2E2E2E2E2E2E2E2E2E2E2E2E2E2E2E2E2E2E2E2E2E2E2E2E2E2E2E2E2E2E2E2E2E2E2E2E2E2E2E2E2E2E2E2E2
310
E2E2E2E2E2E2E2E2E2E2E2E2E2E2E2E2E2E2E2E2E2E2E2E2E2E2E2E2E2E2BEE2F5E2BEF5EFBEE2F5E2BEBEBEBEBEBEBEBEBEBEBEBEBEBEBEBEBEBEBEBEBEBEBEBEBEBEBEBEBEBEBEBEBEBEBEBEBEBEBEBEBEBEBEBEBEBEBEBEBEBEBEBEBEBEBEBEBEBEBEBEBEBEBEBEBEBEBEBEBEBEBEBEBEBEBEBEBEBEBEBEBEBEBEBEBEDC
310
BEBEBEBEBEBEBEBEBEBEBEBEBEBEBEBEBEBEBEBEBEBEBEBEBEBEBEBEBEBEBEBEBEBEBEBEBEBEBEBEBEBEBEBEBEBEBEBEBEBEBEBEBEBEBEBEBEBEBEBEBEBEBEBEBEBEBEBEBEBEBEBEBEBEBEBEBEBEBEBEBEBEBEBEE2F5E2BEF5EFBEE2F5E2E2E2E2E2E2E2E2E2E2E2BEE2E2E2E2E2E2E2E2E2E2BEE2E2E2E2E2E2E2E2E2BEBE
310
E2E2E2E2E2E2E2E2E2BEE2E2E2E2E2E2E2E2E2BEBEE2E2E2E2E2E2E2E2E2BEE2E2E2E2E2E2E2E2E2E2BEE2E2E2E2E2E2E2E2E2E2DCE2E2E2E2E2E2E2E2E2BEE2E2E2E2E2E2E2E2E2E2BEE2E2E2E2E2E2E2E2E2BEBEE2E2E2E2E2E2E2E2E2BEE2E2E2E2E2E2E2E2E2BEBEE2E2E2E2E2E2E2E2E2BEE2E2E2E2E2E2E2E2E2BEBE
310
E2E2E2E2E2E2E2E2E2E2E2F5E2BEF5EFBEE2F5F5F5F5F5F5F5F5F5F5F5F5F5F5F5F5F5F5F5F5F5F5F5F5F5F5F5F5F5F5F5F5F5F5F5F5F5F5F5F5F5F5F5F5F5F5F5F5F5F5F5F5F5F5F5F5F5F5F5F5F5F5F5F5F5F5F5F5F5F5F5F5F5F5F5F5F5F5F5F5F5F5F5F5F5F5F5DCF5F5F5F5F5F5F5F5F5F5F5F5F5F5F5F5F5F5F5F5F5
310
F5F5F5F5F5F5F5F5F5F5F5F5F5F5F5F5F5F5F5F5F5F5F5F5F5F5F5F5F5F5F5F5F5F5F5F5F5F5F5F5F5F5F5F5F5F5F5F5F5F5F5F5F5F5F5F5F5F5F5F5F5F5F5F5F5E2BEF5EFBEE2E2E2E2E2E2E2E2E2E2E2E2E2E2E2E2E2E2E2E2E2E2E2E2E2E2E2E2E2E2E2E2E2E2E2E2E2E2E2E2E2E2E2E2E2E2E2E2E2E2E2E2E2E2E2E2E2
310
E2E2E2E2E2E2E2E2E2E2E2E2E2E2E2E2E2E2E2E2E2E2E2E2E2E2E2E2E2E2E2E2E2E2E2E2E2E2E2E2E2E2E2E2E2E2E2E2E2E2E2E2E2E2E2E2E2E2E2E2E2E2E2E2E2E2E2E2E2E2E2E2E2E2E2E2E2E2E2E2E2E2E2E2E2E2E2E2E2E2E2E2E2E2E2E2E2E2E2E2E2E2E2E2E2E2E2E2E2E2E2E2E2E2E2E2E2E2E2BEEFEFBEBEBEBEBE
310
BEBEBEBEBEBEBEBEBEBEBEBEBEBEBEBEBEBEBEBEBEBEBEBEBEBEBEBEBEBEBEBEBEBEBEBEBEBEBEBEBEBEBEBEBEBEBEBEBEBEBEBEBEBEBEBEBEBEBEBEBEBEBEBEBEBEBEBEBEBEBEBEBEBEBEBEBEBEBEBEBEBEBEBEBEBEBEBEBEBEBEBEBEBEBEBEBEBEBEBEBEBEBEBEBEBEBEBEBEBEBEBEBEBEBEBEBEBEBEBEBEBEBEBEBEBEBE
310
BEBEBEBEBEBEBEBEBEBEBEBEBEBEBEBEBEBEBEBEBEBEBEBEBEBEBEBEBEBEBEBEBEBEBEBEBEBEBEBEBEBEBEBEBEBEEFEF
  0
XRECORD
  5
6F70
102
{ACAD_REACTORS
330
6F6F
102
}
330
6F6F
100
AcDbXrecord
280
     1
102
SHADEPLOT
 70
     1
102
SHADEPLOTRESLEVEL
 70
     2
102
SHADEPLOTCUSTOMDPI
 70
   300
  0
ENDSEC
  0
EOF
