  0
SECTION
  2
HEADER
  9
$ACADVER
  1
AC1015
  9
$ACADMAINTVER
 70
    18
  9
$DWGCODEPAGE
  3
ANSI_1252
  9
$INSBASE
 10
0.0
 20
0.0
 30
0.0
  9
$EXTMIN
 10
0.4694220429089456
 20
49.97414149387066
 30
0.0
  9
$EXTMAX
 10
692.6401998826265
 20
510.8054630300842
 30
0.0
  9
$LIMMIN
 10
0.0
 20
0.0
  9
$LIMMAX
 10
420.0
 20
297.0
  9
$ORTHOMODE
 70
     1
  9
$REGENMODE
 70
     1
  9
$FILLMODE
 70
     1
  9
$QTEXTMODE
 70
     0
  9
$MIRRTEXT
 70
     1
  9
$LTSCALE
 40
1.0
  9
$ATTMODE
 70
     1
  9
$TEXTSIZE
 40
2.5
  9
$TRACEWID
 40
1.0
  9
$TEXTSTYLE
  7
STANDARD
  9
$CLAYER
  8
0
  9
$CELTYPE
  6
ByLayer
  9
$CECOLOR
 62
   256
  9
$CELTSCALE
 40
1.0
  9
$DISPSILH
 70
     0
  9
$DIMSCALE
 40
1.0
  9
$DIMASZ
 40
2.5
  9
$DIMEXO
 40
1.0
  9
$DIMDLI
 40
10.0
  9
$DIMRND
 40
0.0
  9
$DIMDLE
 40
0.0
  9
$DIMEXE
 40
1.0
  9
$DIMTP
 40
0.1
  9
$DIMTM
 40
0.1
  9
$DIMTXT
 40
3.5
  9
$DIMCEN
 40
0.0
  9
$DIMTSZ
 40
0.0
  9
$DIMTOL
 70
     0
  9
$DIMLIM
 70
     0
  9
$DIMTIH
 70
     0
  9
$DIMTOH
 70
     0
  9
$DIMSE1
 70
     0
  9
$DIMSE2
 70
     0
  9
$DIMTAD
 70
     1
  9
$DIMZIN
 70
     8
  9
$DIMBLK
  1

  9
$DIMASO
 70
     1
  9
$DIMSHO
 70
     1
  9
$DIMPOST
  1

  9
$DIMAPOST
  1
"
  9
$DIMALT
 70
     0
  9
$DIMALTD
 70
     2
  9
$DIMALTF
 40
0.0393701
  9
$DIMLFAC
 40
1.0
  9
$DIMTOFL
 70
     1
  9
$DIMTVP
 40
0.0
  9
$DIMTIX
 70
     0
  9
$DIMSOXD
 70
     0
  9
$DIMSAH
 70
     0
  9
$DIMBLK1
  1

  9
$DIMBLK2
  1

  9
$DIMSTYLE
  2
AM_DIN
  9
$DIMCLRD
 70
   256
  9
$DIMCLRE
 70
   256
  9
$DIMCLRT
 70
     2
  9
$DIMTFAC
 40
0.71
  9
$DIMGAP
 40
1.5
  9
$DIMJUST
 70
     0
  9
$DIMSD1
 70
     0
  9
$DIMSD2
 70
     0
  9
$DIMTOLJ
 70
     0
  9
$DIMTZIN
 70
     8
  9
$DIMALTZ
 70
     0
  9
$DIMALTTZ
 70
     0
  9
$DIMUPT
 70
     0
  9
$DIMDEC
 70
     1
  9
$DIMTDEC
 70
     3
  9
$DIMALTU
 70
     2
  9
$DIMALTTD
 70
     4
  9
$DIMTXSTY
  7
STANDARD
  9
$DIMAUNIT
 70
     0
  9
$DIMADEC
 70
     0
  9
$DIMALTRND
 40
0.0
  9
$DIMAZIN
 70
     2
  9
$DIMDSEP
 70
    46
  9
$DIMATFIT
 70
     3
  9
$DIMFRAC
 70
     0
  9
$DIMLDRBLK
  1

  9
$DIMLUNIT
 70
     2
  9
$DIMLWD
 70
    -1
  9
$DIMLWE
 70
    -1
  9
$DIMTMOVE
 70
     0
  9
$LUNITS
 70
     2
  9
$LUPREC
 70
     2
  9
$SKETCHINC
 40
1.0
  9
$FILLETRAD
 40
0.1
  9
$AUNITS
 70
     0
  9
$AUPREC
 70
     0
  9
$MENU
  1
.
  9
$ELEVATION
 40
0.0
  9
$PELEVATION
 40
0.0
  9
$THICKNESS
 40
0.0
  9
$LIMCHECK
 70
     0
  9
$CHAMFERA
 40
2.5
  9
$CHAMFERB
 40
2.5
  9
$CHAMFERC
 40
20.0
  9
$CHAMFERD
 40
0.0
  9
$SKPOLY
 70
     0
  9
$TDCREATE
 40
2453798.966575521
  9
$TDUCREATE
 40
2453798.924908854
  9
$TDUPDATE
 40
2454844.731436447
  9
$TDUUPDATE
 40
2454844.689769780
  9
$TDINDWG
 40
1.0926902083
  9
$TDUSRTIMER
 40
1.0926882292
  9
$USRTIMER
 70
     1
  9
$ANGBASE
 50
0.0
  9
$ANGDIR
 70
     0
  9
$PDMODE
 70
     0
  9
$PDSIZE
 40
0.0
  9
$PLINEWID
 40
0.0
  9
$SPLFRAME
 70
     0
  9
$SPLINETYPE
 70
     6
  9
$SPLINESEGS
 70
     8
  9
$HANDSEED
  5
7DAA
  9
$SURFTAB1
 70
     6
  9
$SURFTAB2
 70
     6
  9
$SURFTYPE
 70
     6
  9
$SURFU
 70
     6
  9
$SURFV
 70
     6
  9
$UCSBASE
  2

  9
$UCSNAME
  2

  9
$UCSORG
 10
0.0
 20
0.0
 30
0.0
  9
$UCSXDIR
 10
1.0
 20
0.0
 30
0.0
  9
$UCSYDIR
 10
0.0
 20
1.0
 30
0.0
  9
$UCSORTHOREF
  2

  9
$UCSORTHOVIEW
 70
     0
  9
$UCSORGTOP
 10
0.0
 20
0.0
 30
0.0
  9
$UCSORGBOTTOM
 10
0.0
 20
0.0
 30
0.0
  9
$UCSORGLEFT
 10
0.0
 20
0.0
 30
0.0
  9
$UCSORGRIGHT
 10
0.0
 20
0.0
 30
0.0
  9
$UCSORGFRONT
 10
0.0
 20
0.0
 30
0.0
  9
$UCSORGBACK
 10
0.0
 20
0.0
 30
0.0
  9
$PUCSBASE
  2

  9
$PUCSNAME
  2

  9
$PUCSORG
 10
0.0
 20
0.0
 30
0.0
  9
$PUCSXDIR
 10
1.0
 20
0.0
 30
0.0
  9
$PUCSYDIR
 10
0.0
 20
1.0
 30
0.0
  9
$PUCSORTHOREF
  2

  9
$PUCSORTHOVIEW
 70
     0
  9
$PUCSORGTOP
 10
0.0
 20
0.0
 30
0.0
  9
$PUCSORGBOTTOM
 10
0.0
 20
0.0
 30
0.0
  9
$PUCSORGLEFT
 10
0.0
 20
0.0
 30
0.0
  9
$PUCSORGRIGHT
 10
0.0
 20
0.0
 30
0.0
  9
$PUCSORGFRONT
 10
0.0
 20
0.0
 30
0.0
  9
$PUCSORGBACK
 10
0.0
 20
0.0
 30
0.0
  9
$USERI1
 70
     0
  9
$USERI2
 70
     0
  9
$USERI3
 70
     0
  9
$USERI4
 70
     0
  9
$USERI5
 70
     0
  9
$USERR1
 40
0.0
  9
$USERR2
 40
0.0
  9
$USERR3
 40
0.0
  9
$USERR4
 40
0.0
  9
$USERR5
 40
0.0
  9
$WORLDVIEW
 70
     1
  9
$SHADEDGE
 70
     3
  9
$SHADEDIF
 70
    70
  9
$TILEMODE
 70
     0
  9
$MAXACTVP
 70
    64
  9
$PINSBASE
 10
0.0
 20
0.0
 30
0.0
  9
$PLIMCHECK
 70
     0
  9
$PEXTMIN
 10
-0.0064041928748111
 20
-0.004528679247187
 30
-0.0000000000112498
  9
$PEXTMAX
 10
420.0064100605656
 20
297.0045328285427
 30
0.0000000000002956
  9
$PLIMMIN
 10
0.0
 20
0.0
  9
$PLIMMAX
 10
420.0
 20
297.0
  9
$UNITMODE
 70
     0
  9
$VISRETAIN
 70
     1
  9
$PLINEGEN
 70
     0
  9
$PSLTSCALE
 70
     1
  9
$TREEDEPTH
 70
  3020
  9
$CMLSTYLE
  2
Standard
  9
$CMLJUST
 70
     0
  9
$CMLSCALE
 40
20.0
  9
$PROXYGRAPHICS
 70
     1
  9
$MEASUREMENT
 70
     1
  9
$CELWEIGHT
370
    -1
  9
$ENDCAPS
280
     0
  9
$JOINSTYLE
280
     0
  9
$LWDISPLAY
290
     0
  9
$INSUNITS
 70
     4
  9
$HYPERLINKBASE
  1

  9
$STYLESHEET
  1
PoPa-0.ctb
  9
$XEDIT
290
     1
  9
$CEPSNTYPE
380
     0
  9
$PSTYLEMODE
290
     1
  9
$FINGERPRINTGUID
  2
{493BFAB3-BE4B-404B-9261-AB3BF2088C47}
  9
$VERSIONGUID
  2
{5C4CB299-2C66-4409-9C9A-71830322F681}
  9
$EXTNAMES
290
     1
  9
$PSVPSCALE
 40
0.0
  9
$OLESTARTUP
290
     0
  0
ENDSEC
  0
SECTION
  2
CLASSES
  0
CLASS
  1
ACDBDICTIONARYWDFLT
  2
AcDbDictionaryWithDefault
  3
ObjectDBX Classes
 90
        0
280
     0
281
     0
  0
CLASS
  1
ACDBPLACEHOLDER
  2
AcDbPlaceHolder
  3
ObjectDBX Classes
 90
        0
280
     0
281
     0
  0
CLASS
  1
LAYOUT
  2
AcDbLayout
  3
ObjectDBX Classes
 90
        0
280
     0
281
     0
  0
CLASS
  1
ACME_DOCUMENT
  2
AcMeDbDoc
  3
AcMeServices
 90
        0
280
     0
281
     0
  0
CLASS
  1
ACMESCOPE
  2
AcMeScope
  3
AcMeServices
 90
        0
280
     0
281
     0
  0
CLASS
  1
ACMECOMMANDHISTORY
  2
AcMeCommandHistory
  3
AcMeServices
 90
        0
280
     0
281
     0
  0
CLASS
  1
ACIMSYSVARMAN
  2
AcImSysVarManager
  3
AcMeServices
 90
        0
280
     0
281
     0
  0
CLASS
  1
ACIMREALSYSVAR
  2
AcImRealSysVar
  3
AcMeServices
 90
        0
280
     0
281
     0
  0
CLASS
  1
ACIMINTSYSVAR
  2
AcImIntSysVar
  3
AcMeServices
 90
        0
280
     0
281
     0
  0
CLASS
  1
ACMEDRAWINGMAN
  2
AcMeDrawingMan
  3
AcMeServices
 90
        0
280
     0
281
     0
  0
CLASS
  1
ACMEVIEW
  2
AcMeView
  3
AcMeServices
 90
        0
280
     0
281
     0
  0
CLASS
  1
ACDBENTITYCACHE
  2
AcMeEntityCache
  3
AcMeServices
 90
        0
280
     0
281
     0
  0
CLASS
  1
GSMANAGER
  2
AcMeGSManager
  3
AcMeServices
 90
        0
280
     0
281
     0
  0
CLASS
  1
AMDTINTERNALREACTOR
  2
AmdtInternalReactor
  3
AcMeServices
 90
        0
280
     0
281
     0
  0
CLASS
  1
ACMESTATEMGR
  2
AcMeStateMgr
  3
AcMeServices
 90
        0
280
     0
281
     0
  0
CLASS
  1
ACGREFMASTER
  2
AcGrefMaster
  3
AcAttribServices
 90
        0
280
     0
281
     0
  0
CLASS
  1
ACME_DATABASE
  2
AcMeDbDatabase
  3
AcMeServices
 90
        0
280
     0
281
     0
  0
CLASS
  1
ACRFINSADJUSTERMGR
  2
AcRfInsAdjusterMgr
  3
AcMeServices
 90
        0
280
     0
281
     0
  0
CLASS
  1
ACGREFACADMASTER
  2
AcGrefacadMaster
  3
AcGrefServices
 90
        0
280
     0
281
     0
  0
CLASS
  1
AMIMASTER
  2
AmiMaster
  3
AmiServices
 90
        0
280
     0
281
     0
  0
CLASS
  1
AMGSETTINGSOBJ
  2
AmgSettingsObj
  3
"AcadM|Product Description: AutoCAD Mechanical 2000|Company: Autodesk"
 90
        0
280
     0
281
     0
  0
CLASS
  1
ACMDATADICTIONARY
  2
AcmDataDictionary
  3
"AcmSymBB|Product Description: AutoCAD Mechanical 2004 DX|Company: Autodesk"
 90
        0
280
     0
281
     0
  0
CLASS
  1
ACMDATAENTRYBLOCK
  2
AcmDataEntryBlock
  3
"AcmSymBB|Product Description: AutoCAD Mechanical 2004 DX|Company: Autodesk"
 90
    32768
280
     0
281
     0
  0
CLASS
  1
ACIMSTRSYSVAR
  2
AcImStrSysVar
  3
AcMeServices
 90
        0
280
     0
281
     0
  0
CLASS
  1
ACMSTANDARDDIN
  2
AcmStandardDIN
  3
"Amdt_StdImp|Product Description: AutoCAD Mechanical 2004 DX|Company: Autodesk"
 90
        0
280
     0
281
     0
  0
CLASS
  1
AMGOBJPROPCFG
  2
AmgObjPropCfg
  3
"AmgLay|Product Description: AutoCAD Mechanical 2000|Company: Autodesk"
 90
        1
280
     0
281
     0
  0
CLASS
  1
AMDTEDGESTANDARDDIN
  2
AmdtEdgeStdDIN
  3
"Amdt_StdImp|Product Description: AutoCAD Mechanical 2004 DX|Company: Autodesk"
 90
    32768
280
     0
281
     0
  0
CLASS
  1
ACMSURFSTANDARDDIN
  2
AcmSurfTextStdDIN
  3
"Amdt_StdImp|Product Description: AutoCAD Mechanical 2004 DX|Company: Autodesk"
 90
        0
280
     0
281
     0
  0
CLASS
  1
ACMFCFSTANDARDDIN
  2
AcmFCFStdDIN
  3
"Amdt_StdImp|Product Description: AutoCAD Mechanical 2004 DX|Company: Autodesk"
 90
        0
280
     0
281
     0
  0
CLASS
  1
ACMWELDSTANDARDDIN
  2
AcmWeldingStdDIN
  3
"Amdt_StdImp|Product Description: AutoCAD Mechanical 2004 DX|Company: Autodesk"
 90
        0
280
     0
281
     0
  0
CLASS
  1
ACMIDSTANDARDDIN
  2
AcmIdStdDIN
  3
"Amdt_StdImp|Product Description: AutoCAD Mechanical 2004 DX|Company: Autodesk"
 90
        0
280
     0
281
     0
  0
CLASS
  1
ACMDATUMSTANDARDDIN
  2
AcmDatumStdDIN
  3
"Amdt_StdImp|Product Description: AutoCAD Mechanical 2004 DX|Company: Autodesk"
 90
        0
280
     0
281
     0
  0
CLASS
  1
ACMBOMSTANDARDDIN
  2
AcmBOMStdDIN
  3
"Amdt_StdImp|Product Description: AutoCAD Mechanical 2004 DX|Company: Autodesk"
 90
        0
280
     0
281
     0
  0
CLASS
  1
ACMDETAILSTANDARDDIN
  2
AmdtDetailSymStdDIN
  3
"Amdt_StdImp|Product Description: AutoCAD Mechanical 2004 DX|Company: Autodesk"
 90
        0
280
     0
281
     0
  0
CLASS
  1
ACMSECTIONSTANDARDDIN
  2
AmdtSectionSymStdDIN
  3
"Amdt_StdImp|Product Description: AutoCAD Mechanical 2004 DX|Company: Autodesk"
 90
        0
280
     0
281
     0
  0
CLASS
  1
ACMCENTERLINESTANDARDDIN
  2
AmdtCenterLineStdDIN
  3
"Amdt_StdImp|Product Description: AutoCAD Mechanical 2004 DX|Company: Autodesk"
 90
        0
280
     0
281
     0
  0
CLASS
  1
ACMNOTESTANDARDDIN
  2
AmdtNoteStdDIN
  3
"Amdt_StdImp|Product Description: AutoCAD Mechanical 2004 DX|Company: Autodesk"
 90
        0
280
     0
281
     0
  0
CLASS
  1
ACAMGLAYSTD
  2
AcAmgLayStd
  3
"AcAmgLayStd|Product Description: AutoCAD Mechanical 2000|Company: Autodesk"
 90
        0
280
     0
281
     0
  0
CLASS
  1
ACAMGDIMSTD
  2
AcAmgDimStd
  3
"AcAmgDimStd|Product Description: AutoCAD Mechanical 2000|Company: Autodesk"
 90
        0
280
     0
281
     0
  0
CLASS
  1
ACAMGHOLECHARTSTDDIN
  2
AcAmgHoleChartStdDIN
  3
ACMSYMBB_MODULE_NAME
 90
        0
280
     0
281
     0
  0
CLASS
  1
ACAMGTITLESTD
  2
AcAmgTitleStd
  3
"TITLEAPP"
 90
        0
280
     0
281
     0
  0
CLASS
  1
ACAMGFILTERDAT
  2
AcAmgFilterDat
  3
"AcadM|Product Description: AutoCAD Mechanical 2000|Company: Autodesk"
 90
    32768
280
     0
281
     0
  0
CLASS
  1
LAYER_INDEX
  2
AcDbLayerIndex
  3
ObjectDBX Classes
 90
    32768
280
     0
281
     0
  0
CLASS
  1
IDBUFFER
  2
AcDbIdBuffer
  3
ObjectDBX Classes
 90
    32768
280
     0
281
     0
  0
CLASS
  1
DICTIONARYVAR
  2
AcDbDictionaryVar
  3
ObjectDBX Classes
 90
        0
280
     0
281
     0
  0
CLASS
  1
DIMASSOC
  2
AcDbDimAssoc
  3
"AcDbDimAssoc|Product Desc:     AcDim ARX App For Dimension|Company:          Autodesk, Inc.|WEB Address:      www.autodesk.com"
 90
        0
280
     0
281
     0
  0
CLASS
  1
ACMSTANDARDANSI
  2
AcmStandardANSI
  3
"Amdt_StdImp|Product Description: AutoCAD Mechanical 2004 DX|Company: Autodesk"
 90
    32768
280
     0
281
     0
  0
CLASS
  1
ACMSURFSTANDARDANSI
  2
AcmSurfTextStdANSI
  3
"Amdt_StdImp|Product Description: AutoCAD Mechanical 2004 DX|Company: Autodesk"
 90
    32768
280
     0
281
     0
  0
CLASS
  1
ACMFCFSTANDARDANSI
  2
AcmFCFStdANSI
  3
"Amdt_StdImp|Product Description: AutoCAD Mechanical 2004 DX|Company: Autodesk"
 90
    32768
280
     0
281
     0
  0
CLASS
  1
ACMWELDSTANDARDANSI
  2
AcmWeldingStdANSI
  3
"Amdt_StdImp|Product Description: AutoCAD Mechanical 2004 DX|Company: Autodesk"
 90
    32768
280
     0
281
     0
  0
CLASS
  1
ACMIDSTANDARDANSI
  2
AcmIdStdANSI
  3
"Amdt_StdImp|Product Description: AutoCAD Mechanical 2004 DX|Company: Autodesk"
 90
    32768
280
     0
281
     0
  0
CLASS
  1
ACMDATUMSTANDARDANSI
  2
AcmDatumStdANSI
  3
"Amdt_StdImp|Product Description: AutoCAD Mechanical 2004 DX|Company: Autodesk"
 90
    32768
280
     0
281
     0
  0
CLASS
  1
ACMBOMSTANDARDANSI
  2
AcmBOMStdANSI
  3
"Amdt_StdImp|Product Description: AutoCAD Mechanical 2004 DX|Company: Autodesk"
 90
    32768
280
     0
281
     0
  0
CLASS
  1
ACMDETAILSTANDARDANSI
  2
AmdtDetailSymStdANSI
  3
"Amdt_StdImp|Product Description: AutoCAD Mechanical 2004 DX|Company: Autodesk"
 90
    32768
280
     0
281
     0
  0
CLASS
  1
ACMSECTIONSTANDARDANSI
  2
AmdtSectionSymStdANSI
  3
"Amdt_StdImp|Product Description: AutoCAD Mechanical 2004 DX|Company: Autodesk"
 90
    32768
280
     0
281
     0
  0
CLASS
  1
ACMCENTERLINESTANDARDANSI
  2
AmdtCenterLineStdANSI
  3
"Amdt_StdImp|Product Description: AutoCAD Mechanical 2004 DX|Company: Autodesk"
 90
    32768
280
     0
281
     0
  0
CLASS
  1
ACMNOTESTANDARDANSI
  2
AmdtNoteStdANSI
  3
"Amdt_StdImp|Product Description: AutoCAD Mechanical 2004 DX|Company: Autodesk"
 90
    32768
280
     0
281
     0
  0
CLASS
  1
ACAMGHOLECHARTSTDANSI
  2
AcAmgHoleChartStdANSI
  3
ACMSYMBB_MODULE_NAME
 90
    32768
280
     0
281
     0
  0
CLASS
  1
ACDBLINERES
  2
AcDbLineRes
  3
AcGrefServices
 90
    32768
280
     0
281
     0
  0
CLASS
  1
AMDTNOTE
  2
AmdtNote
  3
"AcmSymBB|Product Description: AutoCAD Mechanical 2004 DX|Company: Autodesk"
 90
    33791
280
     0
281
     1
  0
CLASS
  1
AMDTFORMULAUPDATEDISPATCHER
  2
AmdtFormulaUpdateDispatcher
  3
AcMeServices
 90
    32768
280
     0
281
     0
  0
CLASS
  1
AMDTDETAILSYM
  2
AmdtDetailSym
  3
"AcmSymBB|Product Description: AutoCAD Mechanical 2004 DX|Company: Autodesk"
 90
    33791
280
     0
281
     1
  0
CLASS
  1
AMDTDETAILSYMLABEL
  2
AmdtDetailSymLabel
  3
"AcmSymBB|Product Description: AutoCAD Mechanical 2004 DX|Company: Autodesk"
 90
    33791
280
     0
281
     1
  0
CLASS
  1
ACDBDIMENSIONRES
  2
AcDbDimensionRes
  3
"AcDbDimensionRes|Product Description: AutoCAD Mechanical 2000|Company: Autodesk"
 90
    32768
280
     0
281
     0
  0
CLASS
  1
TABLESTYLE
  2
AcDbTableStyle
  3
ObjectDBX Classes
 90
     2047
280
     0
281
     0
  0
CLASS
  1
AM_DRAWING_MGR
  2
AcDmDwgMgr
  3
AcMechDwgViewMgmt
 90
        0
280
     0
281
     0
  0
CLASS
  1
AM_DWG_DOCUMENT
  2
AcDmDwgDocument
  3
AcMechDwgViewMgmt
 90
        0
280
     0
281
     0
  0
CLASS
  1
AM_DWG_SHEET
  2
AcDmSheet
  3
AcMechDwgViewMgmt
 90
        0
280
     0
281
     0
  0
CLASS
  1
AM_VIEWDIMPARMAP
  2
AcDmViewDimParMap
  3
AcMechDwgViewMgmt
 90
        0
280
     0
281
     0
  0
CLASS
  1
AM_DWGMGR_NAME
  2
AcDmDwgMgrName
  3
AcMechDwgViewMgmt
 90
        0
280
     0
281
     0
  0
CLASS
  1
AMDTMENUSTATEMGR
  2
AmdtMenuStateMgr
  3
McadcomServices
 90
        0
280
     0
281
     0
  0
CLASS
  1
AMDTMCOMMENUSTATE
  2
AmdtMcomMenuState
  3
McadcomServices
 90
        0
280
     0
281
     0
  0
CLASS
  1
MAPIAMMOUDLE
  2
MApiAmModule
  3
MApiAmServices
 90
        0
280
     0
281
     0
  0
CLASS
  1
AMDTADMENUSTATE
  2
AmdtAdMenuState
  3
DesignerServices
 90
        0
280
     0
281
     0
  0
CLASS
  1
ADAPPL
  2
AcAdAppl
  3
DesignerServices
 90
        0
280
     0
281
     0
  0
CLASS
  1
DEPMGR
  2
AcAdDepMgr
  3
DesignerServices
 90
        0
280
     0
281
     0
  0
CLASS
  1
PARAMMGR
  2
AcAdParamMgr
  3
DesignerServices
 90
        0
280
     0
281
     0
  0
CLASS
  1
PARAMSCOPE
  2
AcAdParamScope
  3
DesignerServices
 90
        0
280
     0
281
     0
  0
CLASS
  1
NAMEDAPPL
  2
AcAdNamedAppl
  3
DesignerServices
 90
        0
280
     0
281
     0
  0
CLASS
  1
AMDTDMMENUSTATE
  2
AmdtDmMenuState
  3
AcMechDwgViewMgmt
 90
        0
280
     0
281
     0
  0
CLASS
  1
AMDTAMMENUSTATE
  2
AmdtAmMenuState
  3
DesignerAssemblies
 90
        0
280
     0
281
     0
  0
CLASS
  1
ACAMPROJECT
  2
AcAmProject
  3
DesignerAssemblies
 90
        0
280
     0
281
     0
  0
CLASS
  1
ACAMGRCOMPDEF
  2
AcAmGrCompDef
  3
DesignerAssemblies
 90
        0
280
     0
281
     0
  0
CLASS
  1
ACCMCONTEXT
  2
AcCmContext
  3
DesignerAssemblies
 90
        0
280
     0
281
     0
  0
CLASS
  1
ACAMCOMPDEF
  2
AcAmCompDef
  3
DesignerAssemblies
 90
        0
280
     0
281
     0
  0
CLASS
  1
ACAMCOMPDEFMGR
  2
AcAmCompDefMgr
  3
DesignerAssemblies
 90
        0
280
     0
281
     0
  0
CLASS
  1
AMCONTEXTMGR
  2
AcAmContextMgr
  3
DesignerAssemblies
 90
        0
280
     0
281
     0
  0
CLASS
  1
ACAMCONTEXTMODELER
  2
AcAmContextModeler
  3
DesignerAssemblies
 90
        0
280
     0
281
     0
  0
CLASS
  1
ACMTHREADLINESTANDARDDIN
  2
AmdtThreadLineStdDIN
  3
"Amdt_StdImp|Product Description: AutoCAD Mechanical 2004 DX|Company: Autodesk"
 90
        0
280
     0
281
     0
  0
CLASS
  1
ACMTHREADLINESTANDARDANSI
  2
AmdtThreadLineStdANSI
  3
"Amdt_StdImp|Product Description: AutoCAD Mechanical 2004 DX|Company: Autodesk"
 90
    32768
280
     0
281
     0
  0
CLASS
  1
CATALOGSTATE
  2
AcAmCatalogState
  3
DesignerAssemblies
 90
        0
280
     0
281
     0
  0
CLASS
  1
ACAMGRCOMPDEFSET
  2
AcAmGrCompDefSet
  3
DesignerAssemblies
 90
        0
280
     0
281
     0
  0
CLASS
  1
AMDTBROWSERDBTAB
  2
AmdtBrowserDbTab
  3
McadcomServices
 90
        0
280
     0
281
     0
  0
CLASS
  1
CBROWSERAPPOBJECT
  2
CBrowserAppObject
  3
McadcomServices
 90
        0
280
     0
281
     0
  0
CLASS
  1
DM_PLACEHOLDER
  2
AcDmSelsetPlaceholder
  3
AcMechDwgViewMgmt
 90
        0
280
     0
281
     0
  0
CLASS
  1
SORTENTSTABLE
  2
AcDbSortentsTable
  3
ObjectDBX Classes
 90
        0
280
     0
281
     0
  0
CLASS
  1
AMDTEDGESTANDARDDIN13715
  2
AmdtEdgeStdDIN13715
  3
"Amdt_StdImp|Product Description: AutoCAD Mechanical 2004 DX|Company: Autodesk"
 90
        0
280
     0
281
     0
  0
CLASS
  1
AMDTNOTETEMPLATEDB
  2
AmdtNoteTemplateDB
  3
AMDT_STDIMP_MODULE_NAME
 90
        0
280
     0
281
     0
  0
ENDSEC
  0
SECTION
  2
TABLES
  0
TABLE
  2
VPORT
  5
8
330
0
100
AcDbSymbolTable
 70
     1
  0
VPORT
  5
7A8F
330
8
100
AcDbSymbolTableRecord
100
AcDbViewportTableRecord
  2
*Active
 70
     0
 10
0.0
 20
0.0
 11
1.0
 21
1.0
 12
346.5577136170957
 22
280.3876568440339
 13
0.0
 23
0.0
 14
2.5
 24
2.5
 15
10.0
 25
10.0
 16
0.0
 26
0.0
 36
1.0
 17
0.0
 27
0.0
 37
0.0
 40
463.8946892736753
 41
1.946564885496183
 42
50.0
 43
0.0
 44
0.0
 50
0.0
 51
0.0
 71
    16
 72
   100
 73
     1
 74
     3
 75
     0
 76
     0
 77
     0
 78
     0
281
     0
 65
     1
110
0.0
120
0.0
130
0.0
111
1.0
121
0.0
131
0.0
112
0.0
122
1.0
132
0.0
 79
     0
146
0.0
  0
ENDTAB
  0
TABLE
  2
LTYPE
  5
5
330
0
100
AcDbSymbolTable
 70
    19
  0
LTYPE
  5
14
330
5
100
AcDbSymbolTableRecord
100
AcDbLinetypeTableRecord
  2
ByBlock
 70
     0
  3

 72
    65
 73
     0
 40
0.0
  0
LTYPE
  5
15
330
5
100
AcDbSymbolTableRecord
100
AcDbLinetypeTableRecord
  2
ByLayer
 70
     0
  3

 72
    65
 73
     0
 40
0.0
  0
LTYPE
  5
16
330
5
100
AcDbSymbolTableRecord
100
AcDbLinetypeTableRecord
  2
Continuous
 70
     0
  3
Solid line
 72
    65
 73
     0
 40
0.0
  0
LTYPE
  5
50
330
5
100
AcDbSymbolTableRecord
100
AcDbLinetypeTableRecord
  2
Amconstr
 70
     0
  3
_______________________
 72
    65
 73
     2
 40
9999.0
 49
9999.0
 74
     0
 49
0.0
 74
     0
  0
LTYPE
  5
55
330
5
100
AcDbSymbolTableRecord
100
AcDbLinetypeTableRecord
  2
Amzigzag
 70
     0
  3
/\/-/\/-/\/-/\/-/\/-/\/
 72
    65
 73
     2
 40
11.0001
 49
0.0001
 74
     4
 75
   135
340
54
 46
0.04
 50
0.0
 44
0.0
 45
0.0
 49
-11.0
 74
     0
  0
LTYPE
  5
56
330
5
100
AcDbSymbolTableRecord
100
AcDbLinetypeTableRecord
  2
AM_DIN_F_W050
 70
     0
  3
__ __ __ __ __ __ __ __ __ __ __ __ __ __ __
 72
    65
 73
     2
 40
6.25
 49
4.75
 74
     0
 49
-1.5
 74
     0
  0
LTYPE
  5
57
330
5
100
AcDbSymbolTableRecord
100
AcDbLinetypeTableRecord
  2
AM_DIN_G_W050
 70
     0
  3
____ . ____ . ____ . ____ . ____ . ____ . ____
 72
    65
 73
     4
 40
13.75
 49
9.75
 74
     0
 49
-1.5
 74
     0
 49
1.0
 74
     0
 49
-1.5
 74
     0
  0
LTYPE
  5
58
330
5
100
AcDbSymbolTableRecord
100
AcDbLinetypeTableRecord
  2
AM_DIN_K_W050
 70
     0
  3
_____ . . _____ . . _____ . . ____ .. ____
 72
    65
 73
     6
 40
16.25
 49
9.75
 74
     0
 49
-1.5
 74
     0
 49
1.0
 74
     0
 49
-1.5
 74
     0
 49
1.0
 74
     0
 49
-1.5
 74
     0
  0
LTYPE
  5
59
330
5
100
AcDbSymbolTableRecord
100
AcDbLinetypeTableRecord
  2
AM_DIN_G_W050x2
 70
     0
  3
__ . __ . __ . __ . __ . __
 72
    65
 73
     4
 40
6.875
 49
4.75
 74
     0
 49
-0.875
 74
     0
 49
0.375
 74
     0
 49
-0.875
 74
     0
  0
LTYPE
  5
5A
330
5
100
AcDbSymbolTableRecord
100
AcDbLinetypeTableRecord
  2
AM_DIN_F_W050x2
 70
     0
  3
 _ _ _ _ _ _ _ _ _ _ _ _
 72
    65
 73
     2
 40
3.125
 49
2.25
 74
     0
 49
-0.875
 74
     0
  0
LTYPE
  5
68
330
5
100
AcDbSymbolTableRecord
100
AcDbLinetypeTableRecord
  2
ACDINWELD
 70
     0
  3
_ _ _ _ _
 72
    65
 73
     2
 40
2.0
 49
2.0
 74
     0
 49
-1.0
 74
     0
  0
LTYPE
  5
69
330
5
100
AcDbSymbolTableRecord
100
AcDbLinetypeTableRecord
  2
ACDINTGB
 70
     0
  3
__ . . __ . .
 72
    65
 73
     6
 40
9.0
 49
4.0
 74
     0
 49
-1.0
 74
     0
 49
1.0
 74
     0
 49
-1.0
 74
     0
 49
1.0
 74
     0
 49
-1.0
 74
     0
  0
LTYPE
  5
6A
330
5
100
AcDbSymbolTableRecord
100
AcDbLinetypeTableRecord
  2
ACDINTGL
 70
     0
  3
_ _ _ _ _
 72
    65
 73
     2
 40
3.0
 49
2.0
 74
     0
 49
-1.0
 74
     0
  0
LTYPE
  5
6C
330
5
100
AcDbSymbolTableRecord
100
AcDbLinetypeTableRecord
  2
CENTER
 70
     0
  3
__ . __
 72
    65
 73
     4
 40
7.0
 49
4.0
 74
     0
 49
-1.0
 74
     0
 49
1.0
 74
     0
 49
-1.0
 74
     0
  0
LTYPE
  5
7C6
330
5
100
AcDbSymbolTableRecord
100
AcDbLinetypeTableRecord
  2
PHANTOM2
 70
     0
  3
Phantom (.5x) ___ _ _ ___ _ _ ___ _ _ ___ _ _
 72
    65
 73
     6
 40
1.25
 49
0.625
 74
     0
 49
-0.125
 74
     0
 49
0.125
 74
     0
 49
-0.125
 74
     0
 49
0.125
 74
     0
 49
-0.125
 74
     0
  0
LTYPE
  5
66CE
330
5
100
AcDbSymbolTableRecord
100
AcDbLinetypeTableRecord
  2
HIDDEN
 70
     0
  3
Verdeckt
 72
    65
 73
     2
 40
9.525
 49
6.349999999999999
 74
     0
 49
-3.174999999999999
 74
     0
  0
LTYPE
  5
7CD6
330
5
100
AcDbSymbolTableRecord
100
AcDbLinetypeTableRecord
  2
AM_ISO02W050
 70
     0
  3
__ __ __ __ __ __ __ __ __ __ __ __ __ __ __
 72
    65
 73
     2
 40
7.5
 49
6.0
 74
     0
 49
-1.5
 74
     0
  0
LTYPE
  5
7CD7
330
5
100
AcDbSymbolTableRecord
100
AcDbLinetypeTableRecord
  2
AM_ISO08W050
 70
     0
  3
____ . ____ . ____ . ____ . ____ . ____ . ____
 72
    65
 73
     4
 40
18.0
 49
12.0
 74
     0
 49
-1.5
 74
     0
 49
3.0
 74
     0
 49
-1.5
 74
     0
  0
LTYPE
  5
7CD8
330
5
100
AcDbSymbolTableRecord
100
AcDbLinetypeTableRecord
  2
AM_ISO09W050
 70
     0
  3
_____ . . _____ . . _____ . . ____ .. ____
 72
    65
 73
     6
 40
22.5
 49
12.0
 74
     0
 49
-1.5
 74
     0
 49
3.0
 74
     0
 49
-1.5
 74
     0
 49
3.0
 74
     0
 49
-1.5
 74
     0
  0
LTYPE
  5
7CD9
330
5
100
AcDbSymbolTableRecord
100
AcDbLinetypeTableRecord
  2
AM_ISO08W050x2
 70
     0
  3
__ . __ . __ . __ . __ . __
 72
    65
 73
     4
 40
9.0
 49
6.0
 74
     0
 49
-0.75
 74
     0
 49
1.5
 74
     0
 49
-0.75
 74
     0
  0
LTYPE
  5
7CDA
330
5
100
AcDbSymbolTableRecord
100
AcDbLinetypeTableRecord
  2
AM_ISO02W050x2
 70
     0
  3
 _ _ _ _ _ _ _ _ _ _ _ _
 72
    65
 73
     2
 40
3.75
 49
3.0
 74
     0
 49
-0.75
 74
     0
  0
ENDTAB
  0
TABLE
  2
LAYER
  5
2
102
{ACAD_XDICTIONARY
360
6886
102
}
330
0
100
AcDbSymbolTable
 70
    10
  0
LAYER
  5
10
330
2
100
AcDbSymbolTableRecord
100
AcDbLayerTableRecord
  2
0
 70
     0
 62
     7
  6
Continuous
370
    -3
390
F
  0
LAYER
  5
A5
330
2
100
AcDbSymbolTableRecord
100
AcDbLayerTableRecord
  2
AM_7
 70
     0
 62
     4
  6
AM_DIN_G_W050
370
    25
390
F
  0
LAYER
  5
398
330
2
100
AcDbSymbolTableRecord
100
AcDbLayerTableRecord
  2
AM_5
 70
     0
 62
     3
  6
Continuous
370
    25
390
F
  0
LAYER
  5
3A8
330
2
100
AcDbSymbolTableRecord
100
AcDbLayerTableRecord
  2
Defpoints
 70
     0
 62
     7
  6
Continuous
290
     0
370
    -3
390
F
  0
LAYER
  5
3DF
330
2
100
AcDbSymbolTableRecord
100
AcDbLayerTableRecord
  2
AM_0
 70
     0
 62
     7
  6
Continuous
370
    50
390
F
  0
LAYER
  5
736
330
2
100
AcDbSymbolTableRecord
100
AcDbLayerTableRecord
  2
AM_VIEWS
 70
     0
 62
     1
  6
Continuous
290
     0
370
    25
390
F
  0
LAYER
  5
7CC
330
2
100
AcDbSymbolTableRecord
100
AcDbLayerTableRecord
  2
AM_BOR
 70
     0
 62
     7
  6
Continuous
370
    50
390
F
  0
LAYER
  5
84F
330
2
100
AcDbSymbolTableRecord
100
AcDbLayerTableRecord
  2
RAHM2
 70
     0
 62
     1
  6
Continuous
370
    -3
390
F
  0
LAYER
  5
851
330
2
100
AcDbSymbolTableRecord
100
AcDbLayerTableRecord
  2
RAHM3
 70
     0
 62
     2
  6
Continuous
370
    -3
390
F
  0
LAYER
  5
852
330
2
100
AcDbSymbolTableRecord
100
AcDbLayerTableRecord
  2
AM_6
 70
     0
 62
     2
  6
Continuous
370
    35
390
F
  0
ENDTAB
  0
TABLE
  2
STYLE
  5
3
330
0
100
AcDbSymbolTable
 70
     5
  0
STYLE
  5
11
330
3
100
AcDbSymbolTableRecord
100
AcDbTextStyleTableRecord
  2
STANDARD
 70
     0
 40
0.0
 41
1.0
 50
0.0
 71
     0
 42
2.5
  3
ISOCP.SHX
  4

  0
STYLE
  5
54
330
3
100
AcDbSymbolTableRecord
100
AcDbTextStyleTableRecord
  2

 70
     1
 40
0.0
 41
1.0
 50
0.0
 71
     0
 42
2.5
  3
ltypeshp.shx
  4

  0
STYLE
  5
5B
330
3
100
AcDbSymbolTableRecord
100
AcDbTextStyleTableRecord
  2
ACDINTS
 70
     0
 40
1.0
 41
1.0
 50
0.0
 71
     0
 42
2.5
  3
isocp.shx
  4

  0
STYLE
  5
67
330
3
100
AcDbSymbolTableRecord
100
AcDbTextStyleTableRecord
  2
ACDINGDT
 70
     0
 40
0.0
 41
1.0
 50
0.0
 71
     0
 42
2.5
  3
AMGDT
  4

  0
STYLE
  5
854
330
3
100
AcDbSymbolTableRecord
100
AcDbTextStyleTableRecord
  2
ROMANS
 70
     0
 40
0.0
 41
1.0
 50
0.0
 71
     0
 42
2.5
  3
romans.shx
  4

  0
ENDTAB
  0
TABLE
  2
VIEW
  5
6
330
0
100
AcDbSymbolTable
 70
     6
  0
VIEW
  5
8F6
330
6
100
AcDbSymbolTableRecord
100
AcDbViewTableRecord
  2
AM_VIEW1
 70
     1
 40
155.1492537313432
 10
146.6308444995469
 20
226.0746268656717
 41
312.1160173573029
 11
0.0
 21
0.0
 31
1.0
 12
0.0
 22
0.0
 32
0.0
 42
50.0
 43
0.0
 44
0.0
 50
0.0
 71
     0
281
     0
 72
     0
  0
VIEW
  5
8F7
330
6
100
AcDbSymbolTableRecord
100
AcDbViewTableRecord
  2
AM_VIEW2
 70
     1
 40
155.1492537313432
 10
273.3655734109007
 20
226.0746268656717
 41
312.1160173573029
 11
0.0
 21
0.0
 31
1.0
 12
0.0
 22
0.0
 32
0.0
 42
50.0
 43
0.0
 44
0.0
 50
0.0
 71
     0
281
     0
 72
     0
  0
VIEW
  5
8F8
330
6
100
AcDbSymbolTableRecord
100
AcDbViewTableRecord
  2
AM_VIEW3
 70
     1
 40
155.1492537313432
 10
146.6308444995469
 20
70.92537313432834
 41
312.1160173573029
 11
0.0
 21
0.0
 31
1.0
 12
0.0
 22
0.0
 32
0.0
 42
50.0
 43
0.0
 44
0.0
 50
0.0
 71
     0
281
     0
 72
     0
  0
VIEW
  5
8F9
330
6
100
AcDbSymbolTableRecord
100
AcDbViewTableRecord
  2
AM_VIEW4
 70
     1
 40
155.1492537313432
 10
273.3655734109007
 20
70.92537313432834
 41
312.1160173573029
 11
0.0
 21
0.0
 31
1.0
 12
0.0
 22
0.0
 32
0.0
 42
50.0
 43
0.0
 44
0.0
 50
0.0
 71
     0
281
     0
 72
     0
  0
VIEW
  5
8FA
330
6
100
AcDbSymbolTableRecord
100
AcDbViewTableRecord
  2
AM_VIEW5
 70
     1
 40
155.1492537313432
 10
209.9982089552239
 20
148.4999999999999
 41
312.1160173573029
 11
0.0
 21
0.0
 31
1.0
 12
0.0
 22
0.0
 32
0.0
 42
50.0
 43
0.0
 44
0.0
 50
0.0
 71
     0
281
     0
 72
     0
  0
VIEW
  5
8FB
330
6
100
AcDbSymbolTableRecord
100
AcDbViewTableRecord
  2
AM_VIEW6
 70
     1
 40
310.2954044776119
 10
209.9982089552238
 20
148.4999999999999
 41
624.2257923942586
 11
0.0
 21
0.0
 31
1.0
 12
0.0
 22
0.0
 32
0.0
 42
50.0
 43
0.0
 44
0.0
 50
0.0
 71
     0
281
     0
 72
     0
  0
ENDTAB
  0
TABLE
  2
UCS
  5
7
330
0
100
AcDbSymbolTable
 70
     0
  0
ENDTAB
  0
TABLE
  2
APPID
  5
9
330
0
100
AcDbSymbolTable
 70
    41
  0
APPID
  5
12
330
9
100
AcDbSymbolTableRecord
100
AcDbRegAppTableRecord
  2
ACAD
 70
     0
  0
APPID
  5
2C
330
9
100
AcDbSymbolTableRecord
100
AcDbRegAppTableRecord
  2
MCAD_NO_VIS
 70
     0
  0
APPID
  5
2D
330
9
100
AcDbSymbolTableRecord
100
AcDbRegAppTableRecord
  2
ACAD_TEMP_GRAPHIC
 70
     0
  0
APPID
  5
3E
330
9
100
AcDbSymbolTableRecord
100
AcDbRegAppTableRecord
  2
ACATTRIBSERVICES
 70
     0
  0
APPID
  5
96
330
9
100
AcDbSymbolTableRecord
100
AcDbRegAppTableRecord
  2
GENIUS_GENREC_14
 70
     0
  0
APPID
  5
97
330
9
100
AcDbSymbolTableRecord
100
AcDbRegAppTableRecord
  2
GENIUS_GENODEF_13
 70
     0
  0
APPID
  5
98
330
9
100
AcDbSymbolTableRecord
100
AcDbRegAppTableRecord
  2
GENIUS_GENOBJ-N-REC_13
 70
     0
  0
APPID
  5
A7
330
9
100
AcDbSymbolTableRecord
100
AcDbRegAppTableRecord
  2
GENIUS_GENOBJ-N-CEN_13
 70
     0
  0
APPID
  5
16E
330
9
100
AcDbSymbolTableRecord
100
AcDbRegAppTableRecord
  2
GENIUS_GENOLIS_13
 70
     0
  0
APPID
  5
16F
330
9
100
AcDbSymbolTableRecord
100
AcDbRegAppTableRecord
  2
GENIUS_GENOENT_13
 70
     0
  0
APPID
  5
170
330
9
100
AcDbSymbolTableRecord
100
AcDbRegAppTableRecord
  2
GENIUS_GENOBJ-N-CRS_13
 70
     0
  0
APPID
  5
171
330
9
100
AcDbSymbolTableRecord
100
AcDbRegAppTableRecord
  2
GENIUS_GENOREF_13
 70
     0
  0
APPID
  5
5CF
330
9
100
AcDbSymbolTableRecord
100
AcDbRegAppTableRecord
  2
ACAD_DIMASSOC_DIMLFAC
 70
     0
  0
APPID
  5
737
330
9
100
AcDbSymbolTableRecord
100
AcDbRegAppTableRecord
  2
GENIUS_GENSCREG_15
 70
     0
  0
APPID
  5
738
330
9
100
AcDbSymbolTableRecord
100
AcDbRegAppTableRecord
  2
GENIUS_GENOBJ-N-SDF_13
 70
     0
  0
APPID
  5
7D6
330
9
100
AcDbSymbolTableRecord
100
AcDbRegAppTableRecord
  2
GENIUS_GENBLLY_14
 70
     0
  0
APPID
  5
855
330
9
100
AcDbSymbolTableRecord
100
AcDbRegAppTableRecord
  2
GENIUS_GENTRA_14
 70
     0
  0
APPID
  5
856
330
9
100
AcDbSymbolTableRecord
100
AcDbRegAppTableRecord
  2
GENIUS_AMGTXT_16
 70
     0
  0
APPID
  5
8F4
330
9
100
AcDbSymbolTableRecord
100
AcDbRegAppTableRecord
  2
GENIUS_GENOBJ-N-TIT_13
 70
     0
  0
APPID
  5
8F5
330
9
100
AcDbSymbolTableRecord
100
AcDbRegAppTableRecord
  2
GENIUS_GENTITLE_13
 70
     0
  0
APPID
  5
925
330
9
100
AcDbSymbolTableRecord
100
AcDbRegAppTableRecord
  2
GENIUS_GENDIMSH_14
 70
     0
  0
APPID
  5
E66
330
9
100
AcDbSymbolTableRecord
100
AcDbRegAppTableRecord
  2
GENIUS_GENOBJ-N-ZOO_13
 70
     0
  0
APPID
  5
E67
330
9
100
AcDbSymbolTableRecord
100
AcDbRegAppTableRecord
  2
GENIUS_GENZOO_16
 70
     0
  0
APPID
  5
29C6
330
9
100
AcDbSymbolTableRecord
100
AcDbRegAppTableRecord
  2
GENIUS_GENDTOL_13
 70
     0
  0
APPID
  5
320C
330
9
100
AcDbSymbolTableRecord
100
AcDbRegAppTableRecord
  2
GENIUS_GENOBJ-N-HTC_13
 70
     0
  0
APPID
  5
320D
330
9
100
AcDbSymbolTableRecord
100
AcDbRegAppTableRecord
  2
GENIUS_GENHATCH_13
 70
     0
  0
APPID
  5
5443
330
9
100
AcDbSymbolTableRecord
100
AcDbRegAppTableRecord
  2
GENIUS_GENOBJ-F-SHCL_13
 70
     0
  0
APPID
  5
5444
330
9
100
AcDbSymbolTableRecord
100
AcDbRegAppTableRecord
  2
GENIUS_GEFMSH_13
 70
     0
  0
APPID
  5
5445
330
9
100
AcDbSymbolTableRecord
100
AcDbRegAppTableRecord
  2
GENIUS_GEFSH_13
 70
     0
  0
APPID
  5
5446
330
9
100
AcDbSymbolTableRecord
100
AcDbRegAppTableRecord
  2
GENIUS_GEFSHP_13
 70
     0
  0
APPID
  5
5454
330
9
100
AcDbSymbolTableRecord
100
AcDbRegAppTableRecord
  2
GENIUS_GENOBJ-F-SHS_13
 70
     0
  0
APPID
  5
66D0
330
9
100
AcDbSymbolTableRecord
100
AcDbRegAppTableRecord
  2
AD_DRAW
 70
     0
  0
APPID
  5
66EE
330
9
100
AcDbSymbolTableRecord
100
AcDbRegAppTableRecord
  2
DESIGNERASSEMBLIES
 70
     0
  0
APPID
  5
66F7
330
9
100
AcDbSymbolTableRecord
100
AcDbRegAppTableRecord
  2
ACAD_DSTYLE_DIMARC_LENGTH_SYMBOL
 70
     0
  0
APPID
  5
66F8
330
9
100
AcDbSymbolTableRecord
100
AcDbRegAppTableRecord
  2
ACAD_DSTYLE_DIMJOGGED_JOGANGLE_SYMBOL
 70
     0
  0
APPID
  5
6715
330
9
100
AcDbSymbolTableRecord
100
AcDbRegAppTableRecord
  2
ACADM_DIM_EDIT
 70
     0
  0
APPID
  5
6716
330
9
100
AcDbSymbolTableRecord
100
AcDbRegAppTableRecord
  2
AMDT_DM_ADJ
 70
     0
  0
APPID
  5
671E
330
9
100
AcDbSymbolTableRecord
100
AcDbRegAppTableRecord
  2
ACAD_EXEMPT_FROM_CAD_STANDARDS
 70
     0
  0
APPID
  5
676E
330
9
100
AcDbSymbolTableRecord
100
AcDbRegAppTableRecord
  2
ACAD_PSEXT
 70
     0
  0
APPID
  5
690D
330
9
100
AcDbSymbolTableRecord
100
AcDbRegAppTableRecord
  2
GENIUS_GENCEN_19
 70
     0
  0
APPID
  5
6A10
330
9
100
AcDbSymbolTableRecord
100
AcDbRegAppTableRecord
  2
AcAecLayerStandard
 70
     0
  0
ENDTAB
  0
TABLE
  2
DIMSTYLE
  5
A
330
0
100
AcDbSymbolTable
 70
     9
100
AcDbDimStyleTable
 71
     1
340
6F
  0
DIMSTYLE
105
6F
102
{ACAD_REACTORS
330
232D
330
232B
330
232A
330
2332
330
2330
330
232F
330
232E
330
2339
330
233B
330
233C
330
4CF9
102
}
330
A
100
AcDbSymbolTableRecord
100
AcDbDimStyleTableRecord
  2
AM_DIN
 70
     0
  4
"
 41
2.5
 42
1.0
 43
10.0
 44
1.0
 47
0.1
 48
0.1
 73
     0
 74
     0
 77
     1
 78
     8
 79
     2
140
3.5
141
0.0
143
0.0393701
146
0.71
147
1.5
172
     1
176
   256
177
   256
178
     2
271
     2
272
     3
274
     4
283
     0
284
     8
340
11
371
    -1
372
    -1
1001
ACAD_DSTYLE_DIMARC_LENGTH_SYMBOL
1070
   379
1070
     0
1001
ACAD_DSTYLE_DIMJOGGED_JOGANGLE_SYMBOL
1070
   384
1040
1.570796326794896
  0
DIMSTYLE
105
70
102
{ACAD_REACTORS
330
7352
102
}
330
A
100
AcDbSymbolTableRecord
100
AcDbDimStyleTableRecord
  2
AM_DIN$3
 70
     0
  4
"
 41
2.5
 42
1.0
 43
10.0
 44
1.0
 47
0.1
 48
0.1
 73
     0
 77
     1
 78
     8
 79
     2
140
3.5
141
0.0
143
0.0393701
146
0.71
147
1.5
176
   256
177
   256
178
     2
271
     2
272
     3
274
     4
283
     0
284
     8
288
     1
289
     0
340
11
371
    -1
372
    -1
1001
ACAD_DSTYLE_DIMARC_LENGTH_SYMBOL
1070
   379
1070
     0
1001
ACAD_DSTYLE_DIMJOGGED_JOGANGLE_SYMBOL
1070
   384
1040
1.570796326794896
  0
DIMSTYLE
105
71
102
{ACAD_REACTORS
330
737C
102
}
330
A
100
AcDbSymbolTableRecord
100
AcDbDimStyleTableRecord
  2
AM_DIN$4
 70
     0
  4
"
 41
2.5
 42
1.0
 43
10.0
 44
1.0
 47
0.1
 48
0.1
 73
     0
 77
     1
 78
     8
 79
     2
140
3.5
141
0.0
143
0.0393701
146
0.71
147
1.5
176
   256
177
   256
178
     2
271
     2
272
     3
274
     4
283
     0
284
     8
288
     1
289
     0
340
11
371
    -1
372
    -1
1001
ACAD_DSTYLE_DIMARC_LENGTH_SYMBOL
1070
   379
1070
     0
1001
ACAD_DSTYLE_DIMJOGGED_JOGANGLE_SYMBOL
1070
   384
1040
1.570796326794896
  0
DIMSTYLE
105
72
330
A
100
AcDbSymbolTableRecord
100
AcDbDimStyleTableRecord
  2
AM_DIN$6
 70
     0
  4
"
 41
2.5
 42
1.0
 43
10.0
 44
1.0
 47
0.1
 48
0.1
 73
     0
 74
     0
 78
     8
 79
     2
140
3.5
141
0.0
143
0.0393701
146
0.71
147
1.5
172
     1
176
   256
177
   256
178
     2
271
     2
272
     3
274
     4
283
     0
284
     8
340
11
371
    -1
372
    -1
1001
ACAD_DSTYLE_DIMARC_LENGTH_SYMBOL
1070
   379
1070
     0
1001
ACAD_DSTYLE_DIMJOGGED_JOGANGLE_SYMBOL
1070
   384
1040
1.570796326794896
  0
DIMSTYLE
105
73
330
A
100
AcDbSymbolTableRecord
100
AcDbDimStyleTableRecord
  2
AM_DIN$7
 70
     0
  4
"
 41
2.5
 42
1.0
 43
10.0
 44
1.0
 47
0.1
 48
0.1
 73
     0
 74
     0
 77
     1
 78
     8
 79
     2
140
5.0
141
0.0
143
0.0393701
146
0.71
147
1.5
172
     1
176
   256
177
   256
178
     2
271
     2
272
     3
274
     4
283
     0
284
     8
340
11
371
    -1
372
    -1
1001
ACAD_DSTYLE_DIMARC_LENGTH_SYMBOL
1070
   379
1070
     0
1001
ACAD_DSTYLE_DIMJOGGED_JOGANGLE_SYMBOL
1070
   384
1040
1.570796326794896
  0
DIMSTYLE
105
74
330
A
100
AcDbSymbolTableRecord
100
AcDbDimStyleTableRecord
  2
AM_DIN$SF
 70
     0
  4
"
 41
2.5
 42
1.0
 43
10.0
 44
1.0
 47
0.1
 48
0.1
 73
     0
 74
     0
 75
     1
 76
     1
 77
     1
 78
     8
 79
     2
140
3.5
141
0.0
143
0.0393701
146
0.71
147
1.5
172
     1
176
   256
177
   256
178
     2
271
     2
272
     3
274
     4
283
     0
284
     8
340
11
371
    -1
372
    -1
1001
ACAD_DSTYLE_DIMARC_LENGTH_SYMBOL
1070
   379
1070
     0
1001
ACAD_DSTYLE_DIMJOGGED_JOGANGLE_SYMBOL
1070
   384
1040
1.570796326794896
  0
DIMSTYLE
105
79
330
A
100
AcDbSymbolTableRecord
100
AcDbDimStyleTableRecord
  2
AM_DIN$SH
 70
     0
  4
"
 41
2.5
 42
1.0
 43
10.0
 44
1.0
 47
0.1
 48
0.1
 73
     0
 74
     0
 75
     1
 76
     1
 77
     1
 78
     8
 79
     2
140
3.5
141
0.0
143
0.0393701
144
2.0
146
0.71
147
1.5
172
     1
173
     1
176
   256
177
   256
178
     2
271
     2
272
     3
274
     4
283
     0
284
     8
340
11
343
75
371
    -1
372
    -1
1001
ACAD_DSTYLE_DIMARC_LENGTH_SYMBOL
1070
   379
1070
     0
1001
ACAD_DSTYLE_DIMJOGGED_JOGANGLE_SYMBOL
1070
   384
1040
1.570796326794896
  0
DIMSTYLE
105
7CF
330
A
100
AcDbSymbolTableRecord
100
AcDbDimStyleTableRecord
  2
Standard
 70
     0
340
11
  0
DIMSTYLE
105
691A
102
{ACAD_REACTORS
330
232D
330
232B
330
232A
330
2332
330
2330
330
232F
330
232E
330
2339
330
233B
330
233C
330
4CF9
330
6EFE
330
705D
330
708C
330
77B3
330
7968
330
798E
102
}
330
A
100
AcDbSymbolTableRecord
100
AcDbDimStyleTableRecord
  2
AM_DIN$0
 70
     0
  4
"
 41
2.5
 42
1.0
 43
10.0
 44
1.0
 47
0.1
 48
0.1
 73
     0
 74
     0
 77
     1
 78
     8
 79
     2
140
3.5
141
0.0
143
0.0393701
146
0.71
147
1.5
172
     1
176
   256
177
   256
178
     2
271
     2
272
     3
274
     4
283
     0
284
     8
340
11
371
    -1
372
    -1
1001
ACAD_DSTYLE_DIMARC_LENGTH_SYMBOL
1070
   379
1070
     0
1001
ACAD_DSTYLE_DIMJOGGED_JOGANGLE_SYMBOL
1070
   384
1040
1.570796326794896
  0
ENDTAB
  0
TABLE
  2
BLOCK_RECORD
  5
1
330
0
100
AcDbSymbolTable
 70
    25
  0
BLOCK_RECORD
  5
1F
102
{ACAD_XDICTIONARY
360
332
102
}
330
1
100
AcDbSymbolTableRecord
100
AcDbBlockTableRecord
  2
*Model_Space
340
22
  0
BLOCK_RECORD
  5
20CF
330
1
100
AcDbSymbolTableRecord
100
AcDbBlockTableRecord
  2
*Paper_Space
340
20DF
  0
BLOCK_RECORD
  5
75
330
1
100
AcDbSymbolTableRecord
100
AcDbBlockTableRecord
  2
GENAXEH
340
0
  0
BLOCK_RECORD
  5
857
330
1
100
AcDbSymbolTableRecord
100
AcDbBlockTableRecord
  2
WB_KOPF_K
340
0
102
{BLKREFS
331
5A25
102
}
  0
BLOCK_RECORD
  5
13B5
330
1
100
AcDbSymbolTableRecord
100
AcDbBlockTableRecord
  2
DIN-A3
340
0
102
{BLKREFS
331
20D1
102
}
  0
BLOCK_RECORD
  5
233F
330
1
100
AcDbSymbolTableRecord
100
AcDbBlockTableRecord
  2
*D3
340
0
  0
BLOCK_RECORD
  5
2357
330
1
100
AcDbSymbolTableRecord
100
AcDbBlockTableRecord
  2
*D4
340
0
  0
BLOCK_RECORD
  5
2363
330
1
100
AcDbSymbolTableRecord
100
AcDbBlockTableRecord
  2
*D5
340
0
  0
BLOCK_RECORD
  5
236F
330
1
100
AcDbSymbolTableRecord
100
AcDbBlockTableRecord
  2
*D6
340
0
  0
BLOCK_RECORD
  5
2387
330
1
100
AcDbSymbolTableRecord
100
AcDbBlockTableRecord
  2
*D7
340
0
  0
BLOCK_RECORD
  5
2393
330
1
100
AcDbSymbolTableRecord
100
AcDbBlockTableRecord
  2
*D8
340
0
  0
BLOCK_RECORD
  5
239F
330
1
100
AcDbSymbolTableRecord
100
AcDbBlockTableRecord
  2
*D9
340
0
  0
BLOCK_RECORD
  5
23BD
330
1
100
AcDbSymbolTableRecord
100
AcDbBlockTableRecord
  2
*D10
340
0
  0
BLOCK_RECORD
  5
23D5
330
1
100
AcDbSymbolTableRecord
100
AcDbBlockTableRecord
  2
*D11
340
0
  0
BLOCK_RECORD
  5
23ED
330
1
100
AcDbSymbolTableRecord
100
AcDbBlockTableRecord
  2
*D12
340
0
  0
BLOCK_RECORD
  5
4CFA
330
1
100
AcDbSymbolTableRecord
100
AcDbBlockTableRecord
  2
*D13
340
0
  0
BLOCK_RECORD
  5
6EFF
330
1
100
AcDbSymbolTableRecord
100
AcDbBlockTableRecord
  2
*D14
340
0
  0
BLOCK_RECORD
  5
705E
330
1
100
AcDbSymbolTableRecord
100
AcDbBlockTableRecord
  2
*D15
340
0
  0
BLOCK_RECORD
  5
708D
330
1
100
AcDbSymbolTableRecord
100
AcDbBlockTableRecord
  2
*D16
340
0
  0
BLOCK_RECORD
  5
7353
330
1
100
AcDbSymbolTableRecord
100
AcDbBlockTableRecord
  2
*D17
340
0
  0
BLOCK_RECORD
  5
737D
330
1
100
AcDbSymbolTableRecord
100
AcDbBlockTableRecord
  2
*D18
340
0
  0
BLOCK_RECORD
  5
77B4
330
1
100
AcDbSymbolTableRecord
100
AcDbBlockTableRecord
  2
*D19
340
0
  0
BLOCK_RECORD
  5
7836
330
1
100
AcDbSymbolTableRecord
100
AcDbBlockTableRecord
  2
2-gleisig-damm
340
0
102
{BLKREFS
331
7884
102
}
1001
ACAD
1000
DesignCenter Data
1002
{
1070
     1
1070
     4
1002
}
  0
BLOCK_RECORD
  5
7969
330
1
100
AcDbSymbolTableRecord
100
AcDbBlockTableRecord
  2
*D21
340
0
  0
BLOCK_RECORD
  5
798F
330
1
100
AcDbSymbolTableRecord
100
AcDbBlockTableRecord
  2
*D22
340
0
  0
BLOCK_RECORD
  5
7AB9
330
1
100
AcDbSymbolTableRecord
100
AcDbBlockTableRecord
  2
*S23
340
0
102
{BLKREFS
331
3B13
102
}
  0
ENDTAB
  0
ENDSEC
  0
SECTION
  2
BLOCKS
  0
BLOCK
  5
20
330
1F
100
AcDbEntity
  8
0
100
AcDbBlockBegin
  2
*Model_Space
 70
     0
 10
0.0
 20
0.0
 30
0.0
  3
*Model_Space
  1

  0
ENDBLK
  5
21
330
1F
100
AcDbEntity
  8
0
100
AcDbBlockEnd
  0
BLOCK
  5
20DD
330
20CF
100
AcDbEntity
 67
     1
  8
0
100
AcDbBlockBegin
  2
*Paper_Space
 70
     0
 10
0.0
 20
0.0
 30
0.0
  3
*Paper_Space
  1

  0
ENDBLK
  5
20DE
330
20CF
100
AcDbEntity
 67
     1
  8
0
100
AcDbBlockEnd
  0
BLOCK
  5
77
330
75
100
AcDbEntity
  8
0
100
AcDbBlockBegin
  2
GENAXEH
 70
     0
 10
0.0
 20
0.0
 30
0.0
  3
GENAXEH
  1

  0
LINE
  5
76
330
75
100
AcDbEntity
  8
0
100
AcDbLine
 10
-1.0
 20
0.0
 30
0.0
 11
1.0
 21
0.0
 31
0.0
  0
ENDBLK
  5
78
330
75
100
AcDbEntity
  8
0
100
AcDbBlockEnd
  0
BLOCK
  5
59CD
330
857
100
AcDbEntity
  8
0
100
AcDbBlockBegin
  2
WB_KOPF_K
 70
     2
 10
0.0
 20
0.0
 30
0.0
  3
WB_KOPF_K
  1

  0
MTEXT
  5
59CE
330
857
100
AcDbEntity
  8
AM_BOR
100
AcDbMText
 10
-150.8799999999998
 20
14.34642053116684
 30
0.0
 40
7.0
 41
43.42999999999999
 71
     5
 72
     5
  1
{\fComic Sans MS|b0|i0|c0|p66;TT-Module}
 73
     1
 44
1.0
1001
GENIUS_AMGTXT_16
1040
7.0
1040
0.24
1001
ACAD
1000
MTEXTBEGIN
1070
    73
1070
     1
1070
    44
1040
1.0
1070
    74
1070
     0
1000
MTEXTEND
  0
TEXT
  5
59CF
330
857
100
AcDbEntity
  8
RAHM2
100
AcDbText
 10
-16.68827451984998
 20
20.83832249703542
 30
0.0
 40
1.8
  1
Rev.
 41
0.7
  7
ROMANS
100
AcDbText
  0
LINE
  5
59D0
330
857
100
AcDbEntity
  8
RAHM2
100
AcDbLine
 10
-18.0
 20
6.375000000000028
 30
0.0
 11
-18.0
 21
23.37500000000003
 31
0.0
  0
TEXT
  5
59D1
330
857
100
AcDbEntity
  8
RAHM2
100
AcDbText
 10
-39.90827451984967
 20
3.838322497035406
 30
0.0
 40
1.8
  1
Ersetzt durch
 41
0.7
  7
ROMANS
100
AcDbText
  0
POINT
  5
59D2
330
857
100
AcDbEntity
  8
RAHM2
100
AcDbPoint
 10
0.0
 20
0.0
 30
0.0
  0
TEXT
  5
59D3
330
857
100
AcDbEntity
  8
RAHM2
100
AcDbText
 10
-39.90827451984967
 20
1.272002880645132
 30
0.0
 40
1.8
  1
Replace through
 41
0.7
  7
ROMANS
100
AcDbText
  0
LINE
  5
59D4
330
857
100
AcDbEntity
  8
RAHM2
100
AcDbLine
 10
-41.21999999999968
 20
6.375000000000028
 30
0.0
 11
-41.21999999999968
 21
0.0
 31
0.0
  0
LINE
  5
59D5
330
857
100
AcDbEntity
  8
RAHM2
100
AcDbLine
 10
-118.8799999999998
 20
6.375000000000028
 30
0.0
 11
-118.8799999999998
 21
23.37500000000006
 31
0.0
  0
TEXT
  5
59D6
330
857
100
AcDbEntity
  8
RAHM2
100
AcDbText
 10
-163.5682745198498
 20
3.838322497035406
 30
0.0
 40
1.8
  1
EDV Nr.
 41
0.7
  7
ROMANS
100
AcDbText
  0
TEXT
  5
59D7
330
857
100
AcDbEntity
  8
RAHM2
100
AcDbText
 10
-122.3482745198496
 20
3.838322497035406
 30
0.0
 40
1.8
  1
Ursprung
 41
0.7
  7
ROMANS
100
AcDbText
  0
TEXT
  5
59D8
330
857
100
AcDbEntity
  8
RAHM2
100
AcDbText
 10
-163.5682745198498
 20
1.272002880645132
 30
0.0
 40
1.8
  1
EDV no.
 41
0.7
  7
ROMANS
100
AcDbText
  0
LINE
  5
59D9
330
857
100
AcDbEntity
  8
RAHM2
100
AcDbLine
 10
-164.8799999999998
 20
6.375000000000042
 30
0.0
 11
-164.8799999999998
 21
0.0
 31
0.0
  0
LINE
  5
59DA
330
857
100
AcDbEntity
  8
RAHM2
100
AcDbLine
 10
-123.6599999999996
 20
6.375000000000028
 30
0.0
 11
-123.6599999999996
 21
0.0
 31
0.0
  0
TEXT
  5
59DB
330
857
100
AcDbEntity
  8
RAHM2
100
AcDbText
 10
-122.3482745198496
 20
1.272002880645132
 30
0.0
 40
1.8
  1
Original
 41
0.7
  7
ROMANS
100
AcDbText
  0
LINE
  5
59DC
330
857
100
AcDbEntity
  8
RAHM2
100
AcDbLine
 10
-82.43999999999994
 20
6.375000000000028
 30
0.0
 11
-82.43999999999994
 21
0.0
 31
0.0
  0
TEXT
  5
59DD
330
857
100
AcDbEntity
  8
RAHM2
100
AcDbText
 10
-181.5682745198498
 20
3.838322497035406
 30
0.0
 40
1.8
  1
Format
 41
0.7
  7
ROMANS
100
AcDbText
  0
LINE
  5
59DE
330
857
100
AcDbEntity
  8
RAHM3
100
AcDbLine
 10
-182.8799999999998
 20
23.37500000000006
 30
0.0
 11
-182.8799999999998
 21
0.0
 31
0.0
  0
TEXT
  5
59DF
330
857
100
AcDbEntity
  8
RAHM2
100
AcDbText
 10
-181.5682745198498
 20
1.272002880645132
 30
0.0
 40
1.8
  1
Format
 41
0.7
  7
ROMANS
100
AcDbText
  0
LINE
  5
59E0
330
857
100
AcDbEntity
  8
RAHM3
100
AcDbLine
 10
-182.8799999999998
 20
23.37500000000006
 30
0.0
 11
0.0
 21
23.37500000000006
 31
0.0
  0
TEXT
  5
59E1
330
857
100
AcDbEntity
  8
RAHM2
100
AcDbText
 10
-81.12827451984992
 20
3.838322497035406
 30
0.0
 40
1.8
  1
Ersatz fuer
 41
0.7
  7
ROMANS
100
AcDbText
  0
LINE
  5
59E2
330
857
100
AcDbEntity
  8
RAHM3
100
AcDbLine
 10
-182.8799999999998
 20
0.0
 30
0.0
 11
0.0
 21
0.0
 31
0.0
  0
LINE
  5
59E3
330
857
100
AcDbEntity
  8
RAHM3
100
AcDbLine
 10
-182.8799999999998
 20
6.375000000000028
 30
0.0
 11
0.0
 21
6.375000000000028
 31
0.0
  0
TEXT
  5
59E4
330
857
100
AcDbEntity
  8
RAHM2
100
AcDbText
 10
-81.12827451984992
 20
1.272002880645132
 30
0.0
 40
1.8
  1
Compensation for
 41
0.7
  7
ROMANS
100
AcDbText
  0
ATTDEF
  5
59E5
330
857
100
AcDbEntity
  8
RAHM2
100
AcDbText
 10
-1.0
 20
2.021503231489191
 30
0.0
 40
3.047999999999999
  1

 41
0.75
 72
     2
 11
-1.0
 21
2.021503231489191
 31
0.0
100
AcDbAttributeDefinition
  3
Ersatz durch
  2
ERSATZ_DURCH
 70
     0
  0
ATTDEF
  5
59E6
330
857
100
AcDbEntity
  8
RAHM2
100
AcDbText
 10
-42.21999999999968
 20
2.021503231489191
 30
0.0
 40
3.047999999999999
  1

 41
0.75
 72
     2
 11
-42.21999999999968
 21
2.021503231489191
 31
0.0
100
AcDbAttributeDefinition
  3
Alte_Zeichnungsnummer
  2
ERSATZ
 70
     0
  0
ATTDEF
  5
59E7
330
857
100
AcDbEntity
  8
RAHM2
100
AcDbText
 10
-83.43999999999994
 20
2.021503231489191
 30
0.0
 40
3.047999999999999
  1

 41
0.75
 72
     2
 11
-83.43999999999994
 21
2.021503231489191
 31
0.0
100
AcDbAttributeDefinition
  3
Ursprungszeichnung
  2
URSPRUNG
 70
     0
  0
ATTDEF
  5
59E8
330
857
100
AcDbEntity
  8
AM_BOR
 62
     1
370
    25
100
AcDbText
 10
-137.291942403353
 20
1.0
 30
0.0
 40
3.047999999999999
  1

 41
0.75
 72
     1
 11
-137.291942403353
 21
1.0
 31
0.0
100
AcDbAttributeDefinition
  3
Dateiname
  2
GEN-TITLE-DWG{8.92}
 70
     0
1001
GENIUS_GENTRA_14
1002
{
1070
     3
1000
GENTRAPR,%s,(GENMSG gendwg 82)
1000
Dateiname
1000
d
1070
     0
1070
     0
1002
}
  0
ATTDEF
  5
59E9
330
857
100
AcDbEntity
  8
AM_BOR
 62
     1
370
    25
100
AcDbText
 10
-169.4399999999998
 20
1.0
 30
0.0
 40
3.047999999999999
  1

 41
0.75
 72
     1
 11
-169.4399999999998
 21
1.0
 31
0.0
100
AcDbAttributeDefinition
  3
Format
  2
GEN-TITLE-SIZ{2.46}
 70
     0
1001
GENIUS_GENTRA_14
1002
{
1070
     3
1000
GENTRAPR,%s,(GENMSG gentitus 90)
1000
Format
1000
d
1070
     0
1070
     0
1002
}
  0
ATTDEF
  5
59EA
330
857
100
AcDbEntity
  8
AM_BOR
100
AcDbText
 10
-16.88340304846952
 20
7.357759021560951
 30
0.0
 40
6.349999999999999
  1
-
 41
0.75
100
AcDbAttributeDefinition
  3
Revision
  2
REVISION
 70
     0
1001
GENIUS_GENTRA_14
1002
{
1070
     3
1000
GENTRAPR,%s,(GENMSG genuser 1)
1000
Revision
1000
d
1070
     0
1070
     0
1002
}
  0
ATTDEF
  5
59EB
330
857
100
AcDbEntity
  8
AM_BOR
100
AcDbText
 10
-116.7917923123015
 20
11.09638664867273
 30
0.0
 40
7.0
  1
-
 41
0.75
100
AcDbAttributeDefinition
  3
Zeichnungsnummer
  2
GEN-TITLE-NR
 70
     0
1001
GENIUS_GENTRA_14
1002
{
1070
     3
1000
GENTRAPR,%s,(GENMSG gentitus 85)
1000
Zeichnungsnummer
1000
d
1070
     0
1070
     0
1002
}
  0
ENDBLK
  5
59EC
330
857
100
AcDbEntity
  8
0
100
AcDbBlockEnd
  0
BLOCK
  5
13FC
330
13B5
100
AcDbEntity
  8
0
100
AcDbBlockBegin
  2
DIN-A3
 70
     0
 10
0.0
 20
0.0
 30
0.0
  3
DIN-A3
  1

  0
LINE
  5
13B6
330
13B5
100
AcDbEntity
  8
AM_BOR
 62
     1
370
    25
100
AcDbLine
 10
420.0
 20
297.0
 30
0.0
 11
419.9999999999999
 21
0.0
 31
0.0
  0
LINE
  5
13B7
330
13B5
100
AcDbEntity
  8
AM_BOR
 62
     1
370
    25
100
AcDbLine
 10
230.0
 20
5.00000000000005
 30
0.0
 11
230.0
 21
0.0000000000000233
 31
0.0
  0
LINE
  5
13B8
330
13B5
100
AcDbEntity
  8
AM_BOR
 62
     1
370
    25
100
AcDbLine
 10
409.9999999999999
 20
10.0
 30
0.0
 11
9.999999999999943
 21
10.00000000000005
 31
0.0
  0
TEXT
  5
13B9
330
13B5
100
AcDbEntity
  8
AM_BOR
 62
     1
370
    25
100
AcDbText
 10
411.0
 20
262.0
 30
0.0
 40
4.0
  1
A
  7
ACDINTS
100
AcDbText
  0
TEXT
  5
13BA
330
13B5
100
AcDbEntity
  8
AM_BOR
 62
     1
370
    25
100
AcDbText
 10
411.0
 20
216.0
 30
0.0
 40
4.0
  1
B
  7
ACDINTS
100
AcDbText
  0
TEXT
  5
13BB
330
13B5
100
AcDbEntity
  8
AM_BOR
 62
     1
370
    25
100
AcDbText
 10
411.0
 20
170.0
 30
0.0
 40
4.0
  1
C
  7
ACDINTS
100
AcDbText
  0
TEXT
  5
13BC
330
13B5
100
AcDbEntity
  8
AM_BOR
 62
     1
370
    25
100
AcDbText
 10
411.0
 20
123.0
 30
0.0
 40
4.0
  1
D
  7
ACDINTS
100
AcDbText
  0
TEXT
  5
13BD
330
13B5
100
AcDbEntity
  8
AM_BOR
 62
     1
370
    25
100
AcDbText
 10
411.0
 20
77.0
 30
0.0
 40
4.0
  1
E
  7
ACDINTS
100
AcDbText
  0
TEXT
  5
13BE
330
13B5
100
AcDbEntity
  8
AM_BOR
 62
     1
370
    25
100
AcDbText
 10
411.0
 20
31.0
 30
0.0
 40
4.0
  1
F
  7
ACDINTS
100
AcDbText
  0
LINE
  5
13BF
330
13B5
100
AcDbEntity
  8
AM_BOR
 62
     1
370
    25
100
AcDbLine
 10
415.0
 20
240.83
 30
0.0
 11
410.0
 21
240.83
 31
0.0
  0
LINE
  5
13C0
330
13B5
100
AcDbEntity
  8
AM_BOR
 62
     1
370
    25
100
AcDbLine
 10
415.0
 20
194.664
 30
0.0
 11
410.0
 21
194.664
 31
0.0
  0
LINE
  5
13C1
330
13B5
100
AcDbEntity
  8
AM_BOR
 62
     1
370
    25
100
AcDbLine
 10
415.0
 20
102.332
 30
0.0
 11
410.0
 21
102.332
 31
0.0
  0
LINE
  5
13C2
330
13B5
100
AcDbEntity
  8
AM_BOR
 62
     1
370
    25
100
AcDbLine
 10
415.0
 20
56.166
 30
0.0
 11
410.0
 21
56.166
 31
0.0
  0
LINE
  5
13C3
330
13B5
100
AcDbEntity
  8
AM_BOR
 62
     1
370
    25
100
AcDbLine
 10
60.0
 20
291.9999999999999
 30
0.0
 11
60.0
 21
287.0
 31
0.0
  0
LINE
  5
13C4
330
13B5
100
AcDbEntity
  8
AM_BOR
 62
     1
370
    25
100
AcDbLine
 10
110.0
 20
291.9999999999999
 30
0.0
 11
110.0
 21
287.0
 31
0.0
  0
LINE
  5
13C5
330
13B5
100
AcDbEntity
  8
AM_BOR
 62
     1
370
    25
100
AcDbLine
 10
160.0
 20
291.9999999999999
 30
0.0
 11
160.0
 21
287.0
 31
0.0
  0
LINE
  5
13C6
330
13B5
100
AcDbEntity
  8
AM_BOR
 62
     1
370
    25
100
AcDbLine
 10
260.0
 20
291.9999999999999
 30
0.0
 11
260.0
 21
287.0
 31
0.0
  0
LINE
  5
13C7
330
13B5
100
AcDbEntity
  8
AM_BOR
 62
     1
370
    25
100
AcDbLine
 10
310.0
 20
291.9999999999999
 30
0.0
 11
310.0
 21
287.0
 31
0.0
  0
LINE
  5
13C8
330
13B5
100
AcDbEntity
  8
AM_BOR
 62
     1
370
    25
100
AcDbLine
 10
360.0
 20
291.9999999999999
 30
0.0
 11
360.0
 21
287.0
 31
0.0
  0
TEXT
  5
13C9
330
13B5
100
AcDbEntity
  8
AM_BOR
 62
     1
370
    25
100
AcDbText
 10
384.0
 20
287.5
 30
0.0
 40
4.0
  1
8
  7
ACDINTS
100
AcDbText
  0
TEXT
  5
13CA
330
13B5
100
AcDbEntity
  8
AM_BOR
 62
     1
370
    25
100
AcDbText
 10
334.0
 20
287.5
 30
0.0
 40
4.0
  1
7
  7
ACDINTS
100
AcDbText
  0
TEXT
  5
13CB
330
13B5
100
AcDbEntity
  8
AM_BOR
 62
     1
370
    25
100
AcDbText
 10
284.0
 20
287.5
 30
0.0
 40
4.0
  1
6
  7
ACDINTS
100
AcDbText
  0
TEXT
  5
13CC
330
13B5
100
AcDbEntity
  8
AM_BOR
 62
     1
370
    25
100
AcDbText
 10
233.5
 20
287.5
 30
0.0
 40
4.0
  1
5
  7
ACDINTS
100
AcDbText
  0
TEXT
  5
13CD
330
13B5
100
AcDbEntity
  8
AM_BOR
 62
     1
370
    25
100
AcDbText
 10
183.5
 20
287.5
 30
0.0
 40
4.0
  1
4
  7
ACDINTS
100
AcDbText
  0
TEXT
  5
13CE
330
13B5
100
AcDbEntity
  8
AM_BOR
 62
     1
370
    25
100
AcDbText
 10
133.5
 20
287.5
 30
0.0
 40
4.0
  1
3
  7
ACDINTS
100
AcDbText
  0
TEXT
  5
13CF
330
13B5
100
AcDbEntity
  8
AM_BOR
 62
     1
370
    25
100
AcDbText
 10
83.49999999999999
 20
287.5
 30
0.0
 40
4.0
  1
2
  7
ACDINTS
100
AcDbText
  0
TEXT
  5
13D0
330
13B5
100
AcDbEntity
  8
AM_BOR
 62
     1
370
    25
100
AcDbText
 10
33.5
 20
287.5
 30
0.0
 40
4.0
  1
1
  7
ACDINTS
100
AcDbText
  0
TEXT
  5
13D1
330
13B5
100
AcDbEntity
  8
AM_BOR
 62
     1
370
    25
100
AcDbText
 10
33.5
 20
5.5
 30
0.0
 40
4.0
  1
1
  7
ACDINTS
100
AcDbText
  0
TEXT
  5
13D2
330
13B5
100
AcDbEntity
  8
AM_BOR
 62
     1
370
    25
100
AcDbText
 10
83.49999999999999
 20
5.5
 30
0.0
 40
4.0
  1
2
  7
ACDINTS
100
AcDbText
  0
TEXT
  5
13D3
330
13B5
100
AcDbEntity
  8
AM_BOR
 62
     1
370
    25
100
AcDbText
 10
133.5
 20
5.5
 30
0.0
 40
4.0
  1
3
  7
ACDINTS
100
AcDbText
  0
TEXT
  5
13D4
330
13B5
100
AcDbEntity
  8
AM_BOR
 62
     1
370
    25
100
AcDbText
 10
183.5
 20
5.5
 30
0.0
 40
4.0
  1
4
  7
ACDINTS
100
AcDbText
  0
TEXT
  5
13D5
330
13B5
100
AcDbEntity
  8
AM_BOR
 62
     1
370
    25
100
AcDbText
 10
6.0
 20
262.0
 30
0.0
 40
4.0
  1
A
  7
ACDINTS
100
AcDbText
  0
TEXT
  5
13D6
330
13B5
100
AcDbEntity
  8
AM_BOR
 62
     1
370
    25
100
AcDbText
 10
6.0
 20
216.0
 30
0.0
 40
4.0
  1
B
  7
ACDINTS
100
AcDbText
  0
TEXT
  5
13D7
330
13B5
100
AcDbEntity
  8
AM_BOR
 62
     1
370
    25
100
AcDbText
 10
6.0
 20
170.0
 30
0.0
 40
4.0
  1
C
  7
ACDINTS
100
AcDbText
  0
TEXT
  5
13D8
330
13B5
100
AcDbEntity
  8
AM_BOR
 62
     1
370
    25
100
AcDbText
 10
6.0
 20
123.0
 30
0.0
 40
4.0
  1
D
  7
ACDINTS
100
AcDbText
  0
TEXT
  5
13D9
330
13B5
100
AcDbEntity
  8
AM_BOR
 62
     1
370
    25
100
AcDbText
 10
6.0
 20
77.0
 30
0.0
 40
4.0
  1
E
  7
ACDINTS
100
AcDbText
  0
TEXT
  5
13DA
330
13B5
100
AcDbEntity
  8
AM_BOR
 62
     1
370
    25
100
AcDbText
 10
6.0
 20
31.0
 30
0.0
 40
4.0
  1
F
  7
ACDINTS
100
AcDbText
  0
LINE
  5
13DB
330
13B5
100
AcDbEntity
  8
AM_BOR
 62
     1
370
    25
100
AcDbLine
 10
160.0
 20
10.0
 30
0.0
 11
160.0
 21
5.0
 31
0.0
  0
LINE
  5
13DC
330
13B5
100
AcDbEntity
  8
AM_BOR
 62
     1
370
    25
100
AcDbLine
 10
110.0
 20
10.0
 30
0.0
 11
110.0
 21
5.0
 31
0.0
  0
LINE
  5
13DD
330
13B5
100
AcDbEntity
  8
AM_BOR
 62
     1
370
    25
100
AcDbLine
 10
60.0
 20
10.0
 30
0.0
 11
60.0
 21
5.0
 31
0.0
  0
LINE
  5
13DE
330
13B5
100
AcDbEntity
  8
AM_BOR
 62
     1
370
    25
100
AcDbLine
 10
10.0
 20
240.83
 30
0.0
 11
5.0
 21
240.83
 31
0.0
  0
LINE
  5
13DF
330
13B5
100
AcDbEntity
  8
AM_BOR
 62
     1
370
    25
100
AcDbLine
 10
10.0
 20
194.664
 30
0.0
 11
5.0
 21
194.664
 31
0.0
  0
LINE
  5
13E0
330
13B5
100
AcDbEntity
  8
AM_BOR
 62
     1
370
    25
100
AcDbLine
 10
10.0
 20
102.332
 30
0.0
 11
5.0
 21
102.332
 31
0.0
  0
LINE
  5
13E1
330
13B5
100
AcDbEntity
  8
AM_BOR
 62
     1
370
    25
100
AcDbLine
 10
10.0
 20
56.166
 30
0.0
 11
5.0
 21
56.166
 31
0.0
  0
LINE
  5
13E2
330
13B5
100
AcDbEntity
  8
AM_BOR
 62
     1
370
    25
100
AcDbLine
 10
410.0
 20
287.0
 30
0.0
 11
409.9999999999999
 21
10.0
 31
0.0
  0
LINE
  5
13E3
330
13B5
100
AcDbEntity
  8
AM_BOR
 62
     1
370
    25
100
AcDbLine
 10
10.00000000000001
 20
287.0
 30
0.0
 11
410.0
 21
287.0
 31
0.0
  0
LINE
  5
13E4
330
13B5
100
AcDbEntity
  8
AM_BOR
 62
     1
370
    25
100
AcDbLine
 10
10.0
 20
10.0
 30
0.0
 11
10.00000000000001
 21
287.0
 31
0.0
  0
LINE
  5
13E5
330
13B5
100
AcDbEntity
  8
0
100
AcDbLine
 10
414.9999999999999
 20
5.0
 30
0.0
 11
4.999999999999943
 21
5.00000000000005
 31
0.0
  0
LINE
  5
13E6
330
13B5
100
AcDbEntity
  8
0
100
AcDbLine
 10
415.0
 20
292.0
 30
0.0
 11
414.9999999999999
 21
5.0
 31
0.0
  0
LINE
  5
13E7
330
13B5
100
AcDbEntity
  8
0
100
AcDbLine
 10
5.000000000000017
 20
292.0
 30
0.0
 11
415.0
 21
292.0
 31
0.0
  0
LINE
  5
13E8
330
13B5
100
AcDbEntity
  8
AM_BOR
 62
     1
370
    25
100
AcDbLine
 10
0.0000000000000182
 20
297.0
 30
0.0
 11
420.0
 21
297.0
 31
0.0
  0
LINE
  5
13E9
330
13B5
100
AcDbEntity
  8
AM_BOR
 62
     1
370
    25
100
AcDbLine
 10
0.0
 20
0.0
 30
0.0
 11
0.0000000000000182
 21
297.0
 31
0.0
  0
LINE
  5
13EA
330
13B5
100
AcDbEntity
  8
AM_BOR
 62
     1
370
    25
100
AcDbLine
 10
125.0
 20
0.0000000000000514
 30
0.0
 11
125.0
 21
5.000000000000035
 31
0.0
  0
TEXT
  5
13EB
330
13B5
100
AcDbEntity
  8
0
 60
     1
100
AcDbText
 10
420.0
 20
297.0
 30
0.0
 40
2.0
  1
!GENTITLE-MAX
  7
ACDINTS
100
AcDbText
  0
TEXT
  5
13EC
330
13B5
100
AcDbEntity
  8
0
 60
     1
100
AcDbText
 10
410.0
 20
287.0
 30
0.0
 40
2.0
  1
!GENTITLE-RU
  7
ACDINTS
100
AcDbText
  0
TEXT
  5
13ED
330
13B5
100
AcDbEntity
  8
0
 60
     1
100
AcDbText
 10
409.9999999999999
 20
10.0
 30
0.0
 40
2.0
  1
!GENTITLE-INSERT
  7
ACDINTS
100
AcDbText
  0
TEXT
  5
13EE
330
13B5
100
AcDbEntity
  8
0
 60
     1
100
AcDbText
 10
10.0
 20
10.00000000000005
 30
0.0
 40
2.0
  1
!GENTITLE-LL
  7
ACDINTS
100
AcDbText
  0
LINE
  5
13EF
330
13B5
100
AcDbEntity
  8
0
100
AcDbLine
 10
5.0
 20
5.0
 30
0.0
 11
5.000000000000017
 21
292.0
 31
0.0
  0
LINE
  5
13F0
330
13B5
100
AcDbEntity
  8
AM_BOR
 62
     1
370
    25
100
AcDbLine
 10
419.9999999999999
 20
0.0
 30
0.0
 11
-0.0000000000000568
 21
0.0000000000000514
 31
0.0
  0
LINE
  5
13F1
330
13B5
100
AcDbEntity
  8
AM_BOR
 62
     2
370
    35
100
AcDbLine
 10
210.0
 20
5.000000000000024
 30
0.0
 11
209.9999999999999
 21
10.00000000000002
 31
0.0
  0
LINE
  5
13F2
330
13B5
100
AcDbEntity
  8
AM_BOR
 62
     2
370
    35
100
AcDbLine
 10
415.0
 20
148.5
 30
0.0
 11
410.0
 21
148.5
 31
0.0
  0
LINE
  5
13F3
330
13B5
100
AcDbEntity
  8
AM_BOR
 62
     2
370
    35
100
AcDbLine
 10
5.000000000000008
 20
148.5
 30
0.0
 11
10.00000000000001
 21
148.5
 31
0.0
  0
LINE
  5
13F4
330
13B5
100
AcDbEntity
  8
AM_BOR
 62
     2
370
    35
100
AcDbLine
 10
210.0
 20
292.0
 30
0.0
 11
210.0
 21
287.0
 31
0.0
  0
TEXT
  5
13F5
330
13B5
100
AcDbEntity
  8
AM_BOR
 62
     1
370
    25
100
AcDbText
 10
233.4999999999999
 20
5.499999999999943
 30
0.0
 40
4.0
  1
5
  7
ACDINTS
100
AcDbText
  0
TEXT
  5
13F6
330
13B5
100
AcDbEntity
  8
AM_BOR
 62
     1
370
    25
100
AcDbText
 10
283.9999999999999
 20
5.499999999999943
 30
0.0
 40
4.0
  1
6
  7
ACDINTS
100
AcDbText
  0
LINE
  5
13F7
330
13B5
100
AcDbEntity
  8
AM_BOR
 62
     1
370
    25
100
AcDbLine
 10
259.9999999999999
 20
9.999999999999943
 30
0.0
 11
259.9999999999999
 21
4.999999999999943
 31
0.0
  0
TEXT
  5
13F8
330
13B5
100
AcDbEntity
  8
AM_BOR
 62
     1
370
    25
100
AcDbText
 10
333.9999999999999
 20
5.499999999999943
 30
0.0
 40
4.0
  1
7
  7
ACDINTS
100
AcDbText
  0
LINE
  5
13F9
330
13B5
100
AcDbEntity
  8
AM_BOR
 62
     1
370
    25
100
AcDbLine
 10
359.9999999999999
 20
9.999999999999943
 30
0.0
 11
359.9999999999999
 21
4.999999999999943
 31
0.0
  0
LINE
  5
13FA
330
13B5
100
AcDbEntity
  8
AM_BOR
 62
     1
370
    25
100
AcDbLine
 10
309.9999999999999
 20
9.999999999999943
 30
0.0
 11
309.9999999999999
 21
4.999999999999943
 31
0.0
  0
TEXT
  5
13FB
330
13B5
100
AcDbEntity
  8
AM_BOR
 62
     1
370
    25
100
AcDbText
 10
383.9999999999999
 20
5.499999999999943
 30
0.0
 40
4.0
  1
8
  7
ACDINTS
100
AcDbText
  0
ENDBLK
  5
13FD
330
13B5
100
AcDbEntity
  8
0
100
AcDbBlockEnd
  0
BLOCK
  5
2349
330
233F
100
AcDbEntity
  8
0
100
AcDbBlockBegin
  2
*D3
 70
     1
 10
0.0
 20
0.0
 30
0.0
  3
*D3
  1

  0
LINE
  5
79EB
330
233F
100
AcDbEntity
  8
AM_5
100
AcDbLine
 10
361.5546866124687
 20
383.2864729458784
 30
0.0
 11
72.55468661246871
 21
383.2864729458784
 31
0.0
  0
LINE
  5
79EC
330
233F
100
AcDbEntity
  8
AM_5
100
AcDbLine
 10
136.5546866124687
 20
203.2864729458784
 30
0.0
 11
72.55468661246867
 21
203.2864729458784
 31
0.0
  0
LINE
  5
79ED
330
233F
100
AcDbEntity
  8
AM_5
100
AcDbLine
 10
74.55468661246872
 20
378.2864729458784
 30
0.0
 11
74.55468661246867
 21
208.2864729458783
 31
0.0
  0
SOLID
  5
79EE
330
233F
100
AcDbEntity
  8
AM_5
100
AcDbTrace
 10
73.72135327913539
 20
378.2864729458784
 30
0.0
 11
75.38801994580204
 21
378.2864729458784
 31
0.0
 12
74.55468661246872
 22
383.2864729458784
 32
0.0
 13
74.55468661246872
 23
383.2864729458784
 33
0.0
  0
SOLID
  5
79EF
330
233F
100
AcDbEntity
  8
AM_5
100
AcDbTrace
 10
73.72135327913534
 20
208.2864729458783
 30
0.0
 11
75.388019945802
 21
208.2864729458783
 31
0.0
 12
74.55468661246867
 22
203.2864729458784
 32
0.0
 13
74.55468661246867
 23
203.2864729458784
 33
0.0
  0
MTEXT
  5
79F0
330
233F
100
AcDbEntity
  8
AM_5
 62
     2
100
AcDbMText
 10
68.05468661246864
 20
293.2864729458784
 30
0.0
 40
7.0
 41
0.0
 71
     5
 72
     1
  1
180
 11
0.0000000000000001
 21
1.0
 31
0.0
 73
     1
 44
1.0
1001
ACAD
1000
MTEXTBEGIN
1070
    73
1070
     1
1070
    44
1040
1.0
1070
    74
1070
     0
1000
MTEXTEND
  0
POINT
  5
79F1
330
233F
100
AcDbEntity
  8
Defpoints
 62
     0
100
AcDbPoint
 10
363.5546866124687
 20
383.2864729458784
 30
0.0
  0
POINT
  5
79F2
330
233F
100
AcDbEntity
  8
Defpoints
 62
     0
100
AcDbPoint
 10
138.5546866124687
 20
203.2864729458784
 30
0.0
  0
POINT
  5
79F3
330
233F
100
AcDbEntity
  8
Defpoints
 62
     0
100
AcDbPoint
 10
74.55468661246867
 20
203.2864729458784
 30
0.0
  0
ENDBLK
  5
234A
330
233F
100
AcDbEntity
  8
0
100
AcDbBlockEnd
  0
BLOCK
  5
2361
330
2357
100
AcDbEntity
  8
0
100
AcDbBlockBegin
  2
*D4
 70
     1
 10
0.0
 20
0.0
 30
0.0
  3
*D4
  1

  0
LINE
  5
79F4
330
2357
100
AcDbEntity
  8
AM_5
100
AcDbLine
 10
361.5546866124687
 20
383.2864729458784
 30
0.0
 11
112.5546866124687
 21
383.2864729458784
 31
0.0
  0
LINE
  5
79F5
330
2357
100
AcDbEntity
  8
AM_5
100
AcDbLine
 10
278.5546866124687
 20
313.2864729458784
 30
0.0
 11
112.5546866124687
 21
313.2864729458784
 31
0.0
  0
LINE
  5
79F6
330
2357
100
AcDbEntity
  8
AM_5
100
AcDbLine
 10
114.5546866124687
 20
378.2864729458784
 30
0.0
 11
114.5546866124687
 21
318.2864729458784
 31
0.0
  0
SOLID
  5
79F7
330
2357
100
AcDbEntity
  8
AM_5
100
AcDbTrace
 10
113.7213532791353
 20
378.2864729458784
 30
0.0
 11
115.388019945802
 21
378.2864729458784
 31
0.0
 12
114.5546866124687
 22
383.2864729458784
 32
0.0
 13
114.5546866124687
 23
383.2864729458784
 33
0.0
  0
SOLID
  5
79F8
330
2357
100
AcDbEntity
  8
AM_5
100
AcDbTrace
 10
113.7213532791353
 20
318.2864729458784
 30
0.0
 11
115.388019945802
 21
318.2864729458784
 31
0.0
 12
114.5546866124687
 22
313.2864729458784
 32
0.0
 13
114.5546866124687
 23
313.2864729458784
 33
0.0
  0
MTEXT
  5
79F9
330
2357
100
AcDbEntity
  8
AM_5
 62
     2
100
AcDbMText
 10
108.0546866124686
 20
348.2864729458784
 30
0.0
 40
7.0
 41
0.0
 71
     5
 72
     1
  1
70
 11
0.0000000000000001
 21
1.0
 31
0.0
 73
     1
 44
1.0
1001
ACAD
1000
MTEXTBEGIN
1070
    73
1070
     1
1070
    44
1040
1.0
1070
    74
1070
     0
1000
MTEXTEND
  0
POINT
  5
79FA
330
2357
100
AcDbEntity
  8
Defpoints
 62
     0
100
AcDbPoint
 10
363.5546866124687
 20
383.2864729458784
 30
0.0
  0
POINT
  5
79FB
330
2357
100
AcDbEntity
  8
Defpoints
 62
     0
100
AcDbPoint
 10
280.5546866124687
 20
313.2864729458784
 30
0.0
  0
POINT
  5
79FC
330
2357
100
AcDbEntity
  8
Defpoints
 62
     0
100
AcDbPoint
 10
114.5546866124687
 20
313.2864729458784
 30
0.0
  0
ENDBLK
  5
2362
330
2357
100
AcDbEntity
  8
0
100
AcDbBlockEnd
  0
BLOCK
  5
236D
330
2363
100
AcDbEntity
  8
0
100
AcDbBlockBegin
  2
*D5
 70
     1
 10
0.0
 20
0.0
 30
0.0
  3
*D5
  1

  0
LINE
  5
79FD
330
2363
100
AcDbEntity
  8
AM_5
100
AcDbLine
 10
361.5546866124687
 20
383.2864729458784
 30
0.0
 11
92.55468661246871
 21
383.2864729458784
 31
0.0
  0
LINE
  5
79FE
330
2363
100
AcDbEntity
  8
AM_5
100
AcDbLine
 10
188.5546866124687
 20
243.2864729458783
 30
0.0
 11
92.55468661246867
 21
243.2864729458783
 31
0.0
  0
LINE
  5
79FF
330
2363
100
AcDbEntity
  8
AM_5
100
AcDbLine
 10
94.5546866124687
 20
378.2864729458784
 30
0.0
 11
94.55468661246866
 21
248.2864729458784
 31
0.0
  0
SOLID
  5
7A00
330
2363
100
AcDbEntity
  8
AM_5
100
AcDbTrace
 10
93.72135327913538
 20
378.2864729458784
 30
0.0
 11
95.38801994580202
 21
378.2864729458784
 31
0.0
 12
94.5546866124687
 22
383.2864729458784
 32
0.0
 13
94.5546866124687
 23
383.2864729458784
 33
0.0
  0
SOLID
  5
7A01
330
2363
100
AcDbEntity
  8
AM_5
100
AcDbTrace
 10
93.72135327913534
 20
248.2864729458784
 30
0.0
 11
95.388019945802
 21
248.2864729458784
 31
0.0
 12
94.55468661246866
 22
243.2864729458783
 32
0.0
 13
94.55468661246866
 23
243.2864729458783
 33
0.0
  0
MTEXT
  5
7A02
330
2363
100
AcDbEntity
  8
AM_5
 62
     2
100
AcDbMText
 10
88.05468661246862
 20
313.2864729458784
 30
0.0
 40
7.0
 41
0.0
 71
     5
 72
     1
  1
140
 11
0.0000000000000001
 21
1.0
 31
0.0
 73
     1
 44
1.0
1001
ACAD
1000
MTEXTBEGIN
1070
    73
1070
     1
1070
    44
1040
1.0
1070
    74
1070
     0
1000
MTEXTEND
  0
POINT
  5
7A03
330
2363
100
AcDbEntity
  8
Defpoints
 62
     0
100
AcDbPoint
 10
363.5546866124687
 20
383.2864729458784
 30
0.0
  0
POINT
  5
7A04
330
2363
100
AcDbEntity
  8
Defpoints
 62
     0
100
AcDbPoint
 10
190.5546866124686
 20
243.2864729458783
 30
0.0
  0
POINT
  5
7A05
330
2363
100
AcDbEntity
  8
Defpoints
 62
     0
100
AcDbPoint
 10
94.55468661246866
 20
243.2864729458783
 30
0.0
  0
ENDBLK
  5
236E
330
2363
100
AcDbEntity
  8
0
100
AcDbBlockEnd
  0
BLOCK
  5
2379
330
236F
100
AcDbEntity
  8
0
100
AcDbBlockBegin
  2
*D6
 70
     1
 10
0.0
 20
0.0
 30
0.0
  3
*D6
  1

  0
LINE
  5
79C1
330
236F
100
AcDbEntity
  8
AM_5
100
AcDbLine
 10
388.5546866124687
 20
198.2864729458783
 30
0.0
 11
388.5546866124687
 21
154.286472945878
 31
0.0
  0
LINE
  5
79C2
330
236F
100
AcDbEntity
  8
AM_5
100
AcDbLine
 10
305.5546866124684
 20
303.2864729458784
 30
0.0
 11
305.5546866124684
 21
154.286472945878
 31
0.0
  0
LINE
  5
79C3
330
236F
100
AcDbEntity
  8
AM_5
100
AcDbLine
 10
383.5546866124687
 20
156.286472945878
 30
0.0
 11
310.5546866124685
 21
156.286472945878
 31
0.0
  0
SOLID
  5
79C4
330
236F
100
AcDbEntity
  8
AM_5
100
AcDbTrace
 10
383.5546866124687
 20
157.1198062792114
 30
0.0
 11
383.5546866124687
 21
155.4531396125447
 31
0.0
 12
388.5546866124687
 22
156.286472945878
 32
0.0
 13
388.5546866124687
 23
156.286472945878
 33
0.0
  0
SOLID
  5
79C5
330
236F
100
AcDbEntity
  8
AM_5
100
AcDbTrace
 10
310.5546866124685
 20
157.1198062792114
 30
0.0
 11
310.5546866124685
 21
155.4531396125447
 31
0.0
 12
305.5546866124684
 22
156.286472945878
 32
0.0
 13
305.5546866124684
 23
156.286472945878
 33
0.0
  0
MTEXT
  5
79C6
330
236F
100
AcDbEntity
  8
AM_5
 62
     2
100
AcDbMText
 10
347.0546866124686
 20
162.786472945878
 30
0.0
 40
7.0
 41
0.0
 71
     5
 72
     1
  1
83
 73
     1
 44
1.0
1001
ACAD
1000
MTEXTBEGIN
1070
    73
1070
     1
1070
    44
1040
1.0
1070
    74
1070
     0
1000
MTEXTEND
  0
POINT
  5
79C7
330
236F
100
AcDbEntity
  8
Defpoints
 62
     0
100
AcDbPoint
 10
388.5546866124687
 20
200.2864729458784
 30
0.0
  0
POINT
  5
79C8
330
236F
100
AcDbEntity
  8
Defpoints
 62
     0
100
AcDbPoint
 10
305.5546866124684
 20
305.2864729458784
 30
0.0
  0
POINT
  5
79C9
330
236F
100
AcDbEntity
  8
Defpoints
 62
     0
100
AcDbPoint
 10
305.5546866124684
 20
156.286472945878
 30
0.0
  0
ENDBLK
  5
237A
330
236F
100
AcDbEntity
  8
0
100
AcDbBlockEnd
  0
BLOCK
  5
2391
330
2387
100
AcDbEntity
  8
0
100
AcDbBlockBegin
  2
*D7
 70
     1
 10
0.0
 20
0.0
 30
0.0
  3
*D7
  1

  0
LINE
  5
79CA
330
2387
100
AcDbEntity
  8
AM_5
100
AcDbLine
 10
388.5546866124687
 20
198.2864729458783
 30
0.0
 11
388.5546866124687
 21
134.2864729458779
 31
0.0
  0
LINE
  5
79CB
330
2387
100
AcDbEntity
  8
AM_5
100
AcDbLine
 10
271.5546866124685
 20
303.2864729458784
 30
0.0
 11
271.5546866124685
 21
134.2864729458779
 31
0.0
  0
LINE
  5
79CC
330
2387
100
AcDbEntity
  8
AM_5
100
AcDbLine
 10
383.5546866124687
 20
136.2864729458779
 30
0.0
 11
276.5546866124684
 21
136.2864729458779
 31
0.0
  0
SOLID
  5
79CD
330
2387
100
AcDbEntity
  8
AM_5
100
AcDbTrace
 10
383.5546866124687
 20
137.1198062792112
 30
0.0
 11
383.5546866124687
 21
135.4531396125446
 31
0.0
 12
388.5546866124687
 22
136.2864729458779
 32
0.0
 13
388.5546866124687
 23
136.2864729458779
 33
0.0
  0
SOLID
  5
79CE
330
2387
100
AcDbEntity
  8
AM_5
100
AcDbTrace
 10
276.5546866124684
 20
137.1198062792112
 30
0.0
 11
276.5546866124684
 21
135.4531396125446
 31
0.0
 12
271.5546866124685
 22
136.2864729458779
 32
0.0
 13
271.5546866124685
 23
136.2864729458779
 33
0.0
  0
MTEXT
  5
79CF
330
2387
100
AcDbEntity
  8
AM_5
 62
     2
100
AcDbMText
 10
330.0546866124686
 20
142.7864729458779
 30
0.0
 40
7.0
 41
0.0
 71
     5
 72
     1
  1
117
 73
     1
 44
1.0
1001
ACAD
1000
MTEXTBEGIN
1070
    73
1070
     1
1070
    44
1040
1.0
1070
    74
1070
     0
1000
MTEXTEND
  0
POINT
  5
79D0
330
2387
100
AcDbEntity
  8
Defpoints
 62
     0
100
AcDbPoint
 10
388.5546866124687
 20
200.2864729458784
 30
0.0
  0
POINT
  5
79D1
330
2387
100
AcDbEntity
  8
Defpoints
 62
     0
100
AcDbPoint
 10
271.5546866124685
 20
305.2864729458784
 30
0.0
  0
POINT
  5
79D2
330
2387
100
AcDbEntity
  8
Defpoints
 62
     0
100
AcDbPoint
 10
271.5546866124685
 20
136.2864729458779
 30
0.0
  0
ENDBLK
  5
2392
330
2387
100
AcDbEntity
  8
0
100
AcDbBlockEnd
  0
BLOCK
  5
239D
330
2393
100
AcDbEntity
  8
0
100
AcDbBlockBegin
  2
*D8
 70
     1
 10
0.0
 20
0.0
 30
0.0
  3
*D8
  1

  0
LINE
  5
79D3
330
2393
100
AcDbEntity
  8
AM_5
100
AcDbLine
 10
138.5546866124687
 20
201.2864729458784
 30
0.0
 11
138.5546866124687
 21
74.28647294587745
 31
0.0
  0
LINE
  5
79D4
330
2393
100
AcDbEntity
  8
AM_5
100
AcDbLine
 10
638.5546866124687
 20
201.2864729458784
 30
0.0
 11
638.5546866124687
 21
74.28647294587745
 31
0.0
  0
LINE
  5
79D5
330
2393
100
AcDbEntity
  8
AM_5
100
AcDbLine
 10
143.5546866124687
 20
76.28647294587747
 30
0.0
 11
633.5546866124687
 21
76.28647294587747
 31
0.0
  0
SOLID
  5
79D6
330
2393
100
AcDbEntity
  8
AM_5
100
AcDbTrace
 10
143.5546866124687
 20
77.11980627921079
 30
0.0
 11
143.5546866124687
 21
75.45313961254414
 31
0.0
 12
138.5546866124687
 22
76.28647294587747
 32
0.0
 13
138.5546866124687
 23
76.28647294587747
 33
0.0
  0
SOLID
  5
79D7
330
2393
100
AcDbEntity
  8
AM_5
100
AcDbTrace
 10
633.5546866124687
 20
77.11980627921079
 30
0.0
 11
633.5546866124687
 21
75.45313961254414
 31
0.0
 12
638.5546866124687
 22
76.28647294587747
 32
0.0
 13
638.5546866124687
 23
76.28647294587747
 33
0.0
  0
MTEXT
  5
79D8
330
2393
100
AcDbEntity
  8
AM_5
 62
     2
100
AcDbMText
 10
388.5546866124687
 20
82.78647294587747
 30
0.0
 40
7.0
 41
0.0
 71
     5
 72
     1
  1
500
 73
     1
 44
1.0
1001
ACAD
1000
MTEXTBEGIN
1070
    73
1070
     1
1070
    44
1040
1.0
1070
    74
1070
     0
1000
MTEXTEND
  0
POINT
  5
79D9
330
2393
100
AcDbEntity
  8
Defpoints
 62
     0
100
AcDbPoint
 10
138.5546866124687
 20
203.2864729458784
 30
0.0
  0
POINT
  5
79DA
330
2393
100
AcDbEntity
  8
Defpoints
 62
     0
100
AcDbPoint
 10
638.5546866124687
 20
203.2864729458784
 30
0.0
  0
POINT
  5
79DB
330
2393
100
AcDbEntity
  8
Defpoints
 62
     0
100
AcDbPoint
 10
638.5546866124687
 20
76.28647294587747
 30
0.0
  0
ENDBLK
  5
239E
330
2393
100
AcDbEntity
  8
0
100
AcDbBlockEnd
  0
BLOCK
  5
23A9
330
239F
100
AcDbEntity
  8
0
100
AcDbBlockBegin
  2
*D9
 70
     1
 10
0.0
 20
0.0
 30
0.0
  3
*D9
  1

  0
LINE
  5
79DC
330
239F
100
AcDbEntity
  8
AM_5
100
AcDbLine
 10
328.5546866124687
 20
241.2864729458783
 30
0.0
 11
328.5546866124687
 21
174.2864729458781
 31
0.0
  0
LINE
  5
79DD
330
239F
100
AcDbEntity
  8
AM_5
100
AcDbLine
 10
388.5546866124687
 20
201.2864729458784
 30
0.0
 11
388.5546866124687
 21
174.2864729458781
 31
0.0
  0
LINE
  5
79DE
330
239F
100
AcDbEntity
  8
AM_5
100
AcDbLine
 10
333.5546866124687
 20
176.2864729458781
 30
0.0
 11
383.5546866124687
 21
176.2864729458781
 31
0.0
  0
SOLID
  5
79DF
330
239F
100
AcDbEntity
  8
AM_5
100
AcDbTrace
 10
333.5546866124687
 20
177.1198062792114
 30
0.0
 11
333.5546866124687
 21
175.4531396125448
 31
0.0
 12
328.5546866124687
 22
176.2864729458781
 32
0.0
 13
328.5546866124687
 23
176.2864729458781
 33
0.0
  0
SOLID
  5
79E0
330
239F
100
AcDbEntity
  8
AM_5
100
AcDbTrace
 10
383.5546866124687
 20
177.1198062792114
 30
0.0
 11
383.5546866124687
 21
175.4531396125448
 31
0.0
 12
388.5546866124687
 22
176.2864729458781
 32
0.0
 13
388.5546866124687
 23
176.2864729458781
 33
0.0
  0
MTEXT
  5
79E1
330
239F
100
AcDbEntity
  8
AM_5
 62
     2
100
AcDbMText
 10
358.5546866124687
 20
182.7864729458781
 30
0.0
 40
7.0
 41
0.0
 71
     5
 72
     1
  1
60
 73
     1
 44
1.0
1001
ACAD
1000
MTEXTBEGIN
1070
    73
1070
     1
1070
    44
1040
1.0
1070
    74
1070
     0
1000
MTEXTEND
  0
POINT
  5
79E2
330
239F
100
AcDbEntity
  8
Defpoints
 62
     0
100
AcDbPoint
 10
328.5546866124687
 20
243.2864729458783
 30
0.0
  0
POINT
  5
79E3
330
239F
100
AcDbEntity
  8
Defpoints
 62
     0
100
AcDbPoint
 10
388.5546866124687
 20
203.2864729458784
 30
0.0
  0
POINT
  5
79E4
330
239F
100
AcDbEntity
  8
Defpoints
 62
     0
100
AcDbPoint
 10
388.5546866124687
 20
176.2864729458781
 30
0.0
  0
ENDBLK
  5
23AA
330
239F
100
AcDbEntity
  8
0
100
AcDbBlockEnd
  0
BLOCK
  5
23C7
330
23BD
100
AcDbEntity
  8
0
100
AcDbBlockBegin
  2
*D10
 70
     1
 10
0.0
 20
0.0
 30
0.0
  3
*D10
  1

  0
LINE
  5
71F8
330
23BD
100
AcDbEntity
  8
AM_5
100
AcDbLine
 10
440.5546866124686
 20
283.2864729458783
 30
0.0
 11
474.5546866124686
 21
283.2864729458783
 31
0.0
  0
LINE
  5
71F9
330
23BD
100
AcDbEntity
  8
AM_5
100
AcDbLine
 10
440.5546866124686
 20
233.2864729458783
 30
0.0
 11
474.5546866124686
 21
233.2864729458783
 31
0.0
  0
LINE
  5
71FA
330
23BD
100
AcDbEntity
  8
AM_5
100
AcDbLine
 10
472.5546866124687
 20
278.2864729458784
 30
0.0
 11
472.5546866124687
 21
238.2864729458783
 31
0.0
  0
SOLID
  5
71FB
330
23BD
100
AcDbEntity
  8
AM_5
100
AcDbTrace
 10
471.7213532791354
 20
278.2864729458784
 30
0.0
 11
473.3880199458019
 21
278.2864729458784
 31
0.0
 12
472.5546866124687
 22
283.2864729458783
 32
0.0
 13
472.5546866124687
 23
283.2864729458783
 33
0.0
  0
SOLID
  5
71FC
330
23BD
100
AcDbEntity
  8
AM_5
100
AcDbTrace
 10
471.7213532791354
 20
238.2864729458783
 30
0.0
 11
473.3880199458019
 21
238.2864729458783
 31
0.0
 12
472.5546866124687
 22
233.2864729458783
 32
0.0
 13
472.5546866124687
 23
233.2864729458783
 33
0.0
  0
MTEXT
  5
71FD
330
23BD
100
AcDbEntity
  8
AM_5
 62
     2
100
AcDbMText
 10
466.0546866124686
 20
258.2864729458784
 30
0.0
 40
7.0
 41
0.0
 71
     5
 72
     1
  1
50
 11
0.0000000000000001
 21
1.0
 31
0.0
 73
     1
 44
1.0
1001
ACAD
1000
MTEXTBEGIN
1070
    73
1070
     1
1070
    44
1040
1.0
1070
    74
1070
     0
1000
MTEXTEND
  0
POINT
  5
71FE
330
23BD
100
AcDbEntity
  8
Defpoints
 62
     0
100
AcDbPoint
 10
438.5546866124687
 20
283.2864729458783
 30
0.0
  0
POINT
  5
71FF
330
23BD
100
AcDbEntity
  8
Defpoints
 62
     0
100
AcDbPoint
 10
438.5546866124687
 20
233.2864729458783
 30
0.0
  0
POINT
  5
7200
330
23BD
100
AcDbEntity
  8
Defpoints
 62
     0
100
AcDbPoint
 10
472.5546866124687
 20
233.2864729458783
 30
0.0
  0
ENDBLK
  5
23C8
330
23BD
100
AcDbEntity
  8
0
100
AcDbBlockEnd
  0
BLOCK
  5
23DF
330
23D5
100
AcDbEntity
  8
0
100
AcDbBlockBegin
  2
*D11
 70
     1
 10
0.0
 20
0.0
 30
0.0
  3
*D11
  1

  0
LINE
  5
7587
330
23D5
100
AcDbEntity
  8
AM_5
100
AcDbLine
 10
346.5546866124685
 20
385.2864729458784
 30
0.0
 11
346.5546866124685
 21
417.2864729458784
 31
0.0
  0
LINE
  5
7588
330
23D5
100
AcDbEntity
  8
AM_5
100
AcDbLine
 10
388.5546866124687
 20
385.2864729458784
 30
0.0
 11
388.5546866124687
 21
417.2864729458784
 31
0.0
  0
LINE
  5
7589
330
23D5
100
AcDbEntity
  8
AM_5
100
AcDbLine
 10
351.5546866124684
 20
415.2864729458784
 30
0.0
 11
383.5546866124687
 21
415.2864729458784
 31
0.0
  0
SOLID
  5
758A
330
23D5
100
AcDbEntity
  8
AM_5
100
AcDbTrace
 10
351.5546866124684
 20
416.1198062792117
 30
0.0
 11
351.5546866124684
 21
414.4531396125451
 31
0.0
 12
346.5546866124685
 22
415.2864729458784
 32
0.0
 13
346.5546866124685
 23
415.2864729458784
 33
0.0
  0
SOLID
  5
758B
330
23D5
100
AcDbEntity
  8
AM_5
100
AcDbTrace
 10
383.5546866124687
 20
416.1198062792117
 30
0.0
 11
383.5546866124687
 21
414.4531396125451
 31
0.0
 12
388.5546866124687
 22
415.2864729458784
 32
0.0
 13
388.5546866124687
 23
415.2864729458784
 33
0.0
  0
MTEXT
  5
758C
330
23D5
100
AcDbEntity
  8
AM_5
 62
     2
100
AcDbMText
 10
367.5546866124686
 20
421.7871619222563
 30
0.0
 40
7.0
 41
0.0
 71
     5
 72
     1
  1
42
 73
     1
 44
1.0
1001
ACAD
1000
MTEXTBEGIN
1070
    73
1070
     1
1070
    44
1040
1.0
1070
    74
1070
     0
1000
MTEXTEND
  0
POINT
  5
758D
330
23D5
100
AcDbEntity
  8
Defpoints
 62
     0
100
AcDbPoint
 10
346.5546866124685
 20
383.2864729458784
 30
0.0
  0
POINT
  5
758E
330
23D5
100
AcDbEntity
  8
Defpoints
 62
     0
100
AcDbPoint
 10
388.5546866124687
 20
383.2864729458784
 30
0.0
  0
POINT
  5
758F
330
23D5
100
AcDbEntity
  8
Defpoints
 62
     0
100
AcDbPoint
 10
388.5546866124687
 20
415.2864729458784
 30
0.0
  0
ENDBLK
  5
23E0
330
23D5
100
AcDbEntity
  8
0
100
AcDbBlockEnd
  0
BLOCK
  5
23F9
330
23ED
100
AcDbEntity
  8
0
100
AcDbBlockBegin
  2
*D12
 70
     1
 10
0.0
 20
0.0
 30
0.0
  3
*D12
  1

  0
LINE
  5
7A29
330
23ED
100
AcDbEntity
  8
AM_5
100
AcDbLine
 10
277.5546866124685
 20
338.2864729458784
 30
0.0
 11
242.8455408725668
 21
338.2864729458784
 31
0.0
  0
LINE
  5
7A2A
330
23ED
100
AcDbEntity
  8
AM_5
100
AcDbLine
 10
270.5546866124684
 20
343.2864729458783
 30
0.0
 11
242.8455408725668
 21
343.2864729458783
 31
0.0
  0
LINE
  5
7A2B
330
23ED
100
AcDbEntity
  8
AM_5
100
AcDbLine
 10
244.8455408725668
 20
333.2864729458784
 30
0.0
 11
244.8455408725668
 21
328.2864729458784
 31
0.0
  0
LINE
  5
7A2C
330
23ED
100
AcDbEntity
  8
AM_5
100
AcDbLine
 10
244.8455408725668
 20
348.2864729458784
 30
0.0
 11
244.8455408725668
 21
362.3764224395395
 31
0.0
  0
LINE
  5
7A2D
330
23ED
100
AcDbEntity
  8
AM_5
100
AcDbLine
 10
244.8455408725668
 20
338.2864729458784
 30
0.0
 11
244.8455408725668
 21
343.2864729458783
 31
0.0
  0
SOLID
  5
7A2E
330
23ED
100
AcDbEntity
  8
AM_5
100
AcDbTrace
 10
244.0122075392334
 20
333.2864729458784
 30
0.0
 11
245.6788742059001
 21
333.2864729458784
 31
0.0
 12
244.8455408725668
 22
338.2864729458784
 32
0.0
 13
244.8455408725668
 23
338.2864729458784
 33
0.0
  0
SOLID
  5
7A2F
330
23ED
100
AcDbEntity
  8
AM_5
100
AcDbTrace
 10
244.0122075392334
 20
348.2864729458784
 30
0.0
 11
245.6788742059001
 21
348.2864729458784
 31
0.0
 12
244.8455408725668
 22
343.2864729458783
 32
0.0
 13
244.8455408725668
 23
343.2864729458783
 33
0.0
  0
MTEXT
  5
7A30
330
23ED
100
AcDbEntity
  8
AM_5
 62
     2
100
AcDbMText
 10
238.3455408725667
 20
357.831447692709
 30
0.0
 40
7.0
 41
0.0
 71
     5
 72
     1
  1
5
 11
0.0000000000000001
 21
1.0
 31
0.0
 73
     1
 44
1.0
1001
ACAD
1000
MTEXTBEGIN
1070
    73
1070
     1
1070
    44
1040
1.0
1070
    74
1070
     0
1000
MTEXTEND
  0
POINT
  5
7A31
330
23ED
100
AcDbEntity
  8
Defpoints
 62
     0
100
AcDbPoint
 10
279.5546866124685
 20
338.2864729458784
 30
0.0
  0
POINT
  5
7A32
330
23ED
100
AcDbEntity
  8
Defpoints
 62
     0
100
AcDbPoint
 10
272.5546866124684
 20
343.2864729458783
 30
0.0
  0
POINT
  5
7A33
330
23ED
100
AcDbEntity
  8
Defpoints
 62
     0
100
AcDbPoint
 10
244.8455408725668
 20
343.2864729458783
 30
0.0
  0
ENDBLK
  5
23FA
330
23ED
100
AcDbEntity
  8
0
100
AcDbBlockEnd
  0
BLOCK
  5
4D06
330
4CFA
100
AcDbEntity
  8
0
100
AcDbBlockBegin
  2
*D13
 70
     1
 10
0.0
 20
0.0
 30
0.0
  3
*D13
  1

  0
LINE
  5
7A7E
330
4CFA
100
AcDbEntity
  8
AM_5
100
AcDbLine
 10
283.5546866124685
 20
336.2864729458784
 30
0.0
 11
283.5546866124685
 21
321.2168274850396
 31
0.0
  0
LINE
  5
7A7F
330
4CFA
100
AcDbEntity
  8
AM_5
100
AcDbLine
 10
279.5546866124685
 20
336.2864729458784
 30
0.0
 11
279.5546866124685
 21
321.2168274850396
 31
0.0
  0
LINE
  5
7A80
330
4CFA
100
AcDbEntity
  8
AM_5
100
AcDbLine
 10
288.5546866124684
 20
323.2168274850396
 30
0.0
 11
293.5546866124685
 21
323.2168274850396
 31
0.0
  0
LINE
  5
7A81
330
4CFA
100
AcDbEntity
  8
AM_5
100
AcDbLine
 10
274.5546866124684
 20
323.2168274850396
 30
0.0
 11
260.0546866124684
 21
323.2168274850396
 31
0.0
  0
LINE
  5
7A82
330
4CFA
100
AcDbEntity
  8
AM_5
100
AcDbLine
 10
283.5546866124685
 20
323.2168274850396
 30
0.0
 11
279.5546866124685
 21
323.2168274850396
 31
0.0
  0
SOLID
  5
7A83
330
4CFA
100
AcDbEntity
  8
AM_5
100
AcDbTrace
 10
288.5546866124684
 20
324.050160818373
 30
0.0
 11
288.5546866124684
 21
322.3834941517063
 31
0.0
 12
283.5546866124685
 22
323.2168274850396
 32
0.0
 13
283.5546866124685
 23
323.2168274850396
 33
0.0
  0
SOLID
  5
7A84
330
4CFA
100
AcDbEntity
  8
AM_5
100
AcDbTrace
 10
274.5546866124684
 20
324.050160818373
 30
0.0
 11
274.5546866124684
 21
322.3834941517063
 31
0.0
 12
279.5546866124685
 22
323.2168274850396
 32
0.0
 13
279.5546866124685
 23
323.2168274850396
 33
0.0
  0
MTEXT
  5
7A85
330
4CFA
100
AcDbEntity
  8
AM_5
 62
     2
100
AcDbMText
 10
264.8046866124685
 20
329.7168274850396
 30
0.0
 40
7.0
 41
0.0
 71
     5
 72
     1
  1
4
 73
     1
 44
1.0
1001
ACAD
1000
MTEXTBEGIN
1070
    73
1070
     1
1070
    44
1040
1.0
1070
    74
1070
     0
1000
MTEXTEND
  0
POINT
  5
7A86
330
4CFA
100
AcDbEntity
  8
Defpoints
 62
     0
100
AcDbPoint
 10
283.5546866124685
 20
338.2864729458784
 30
0.0
  0
POINT
  5
7A87
330
4CFA
100
AcDbEntity
  8
Defpoints
 62
     0
100
AcDbPoint
 10
279.5546866124685
 20
338.2864729458784
 30
0.0
  0
POINT
  5
7A88
330
4CFA
100
AcDbEntity
  8
Defpoints
 62
     0
100
AcDbPoint
 10
279.5546866124685
 20
323.2168274850396
 30
0.0
  0
ENDBLK
  5
4D07
330
4CFA
100
AcDbEntity
  8
0
100
AcDbBlockEnd
  0
BLOCK
  5
6F0B
330
6EFF
100
AcDbEntity
  8
0
100
AcDbBlockBegin
  2
*D14
 70
     1
 10
0.0
 20
0.0
 30
0.0
  3
*D14
  1

  0
LINE
  5
726A
330
6EFF
100
AcDbEntity
  8
AM_5
100
AcDbLine
 10
411.5546866124686
 20
383.2864729458784
 30
0.0
 11
411.3686833297953
 21
383.2864729458784
 31
0.0
  0
LINE
  5
726B
330
6EFF
100
AcDbEntity
  8
AM_5
100
AcDbLine
 10
414.2024809823153
 20
391.2864729458783
 30
0.0
 11
411.3686833297954
 21
391.2864729458783
 31
0.0
  0
LINE
  5
726C
330
6EFF
100
AcDbEntity
  8
AM_5
100
AcDbLine
 10
413.3686833297954
 20
378.2864729458784
 30
0.0
 11
413.3686833297954
 21
373.2864729458784
 31
0.0
  0
LINE
  5
726D
330
6EFF
100
AcDbEntity
  8
AM_5
100
AcDbLine
 10
413.3686833297954
 20
396.2864729458784
 30
0.0
 11
413.3686833297954
 21
410.0864729458783
 31
0.0
  0
LINE
  5
726E
330
6EFF
100
AcDbEntity
  8
AM_5
100
AcDbLine
 10
413.3686833297954
 20
383.2864729458784
 30
0.0
 11
413.3686833297954
 21
391.2864729458783
 31
0.0
  0
SOLID
  5
726F
330
6EFF
100
AcDbEntity
  8
AM_5
100
AcDbTrace
 10
412.535349996462
 20
378.2864729458784
 30
0.0
 11
414.2020166631287
 21
378.2864729458784
 31
0.0
 12
413.3686833297954
 22
383.2864729458784
 32
0.0
 13
413.3686833297954
 23
383.2864729458784
 33
0.0
  0
SOLID
  5
7270
330
6EFF
100
AcDbEntity
  8
AM_5
100
AcDbTrace
 10
412.5353499964621
 20
396.2864729458784
 30
0.0
 11
414.2020166631287
 21
396.2864729458784
 31
0.0
 12
413.3686833297954
 22
391.2864729458783
 32
0.0
 13
413.3686833297954
 23
391.2864729458783
 33
0.0
  0
MTEXT
  5
7271
330
6EFF
100
AcDbEntity
  8
AM_5
 62
     2
100
AcDbMText
 10
406.8686833297952
 20
405.6864729458784
 30
0.0
 40
7.0
 41
0.0
 71
     5
 72
     1
  1
8
 11
0.0000000000000001
 21
1.0
 31
0.0
 73
     1
 44
1.0
1001
ACAD
1000
MTEXTBEGIN
1070
    73
1070
     1
1070
    44
1040
1.0
1070
    74
1070
     0
1000
MTEXTEND
  0
POINT
  5
7272
330
6EFF
100
AcDbEntity
  8
Defpoints
 62
     0
100
AcDbPoint
 10
413.5546866124687
 20
383.2864729458784
 30
0.0
  0
POINT
  5
7273
330
6EFF
100
AcDbEntity
  8
Defpoints
 62
     0
100
AcDbPoint
 10
416.2024809823154
 20
391.2864729458783
 30
0.0
  0
POINT
  5
7274
330
6EFF
100
AcDbEntity
  8
Defpoints
 62
     0
100
AcDbPoint
 10
413.3686833297954
 20
391.2864729458783
 30
0.0
  0
ENDBLK
  5
6F0C
330
6EFF
100
AcDbEntity
  8
0
100
AcDbBlockEnd
  0
BLOCK
  5
7068
330
705E
100
AcDbEntity
  8
0
100
AcDbBlockBegin
  2
*D15
 70
     1
 10
0.0
 20
0.0
 30
0.0
  3
*D15
  1

  0
LINE
  5
79B8
330
705E
100
AcDbEntity
  8
AM_5
100
AcDbLine
 10
388.5546866124686
 20
201.2864729458784
 30
0.0
 11
388.5546866124686
 21
114.2864729458777
 31
0.0
  0
LINE
  5
79B9
330
705E
100
AcDbEntity
  8
AM_5
100
AcDbLine
 10
215.5546866124687
 20
233.2864729458783
 30
0.0
 11
215.5546866124687
 21
114.2864729458777
 31
0.0
  0
LINE
  5
79BA
330
705E
100
AcDbEntity
  8
AM_5
100
AcDbLine
 10
383.5546866124686
 20
116.2864729458777
 30
0.0
 11
220.5546866124687
 21
116.2864729458777
 31
0.0
  0
SOLID
  5
79BB
330
705E
100
AcDbEntity
  8
AM_5
100
AcDbTrace
 10
383.5546866124686
 20
117.119806279211
 30
0.0
 11
383.5546866124686
 21
115.4531396125444
 31
0.0
 12
388.5546866124686
 22
116.2864729458777
 32
0.0
 13
388.5546866124686
 23
116.2864729458777
 33
0.0
  0
SOLID
  5
79BC
330
705E
100
AcDbEntity
  8
AM_5
100
AcDbTrace
 10
220.5546866124687
 20
117.119806279211
 30
0.0
 11
220.5546866124687
 21
115.4531396125444
 31
0.0
 12
215.5546866124687
 22
116.2864729458777
 32
0.0
 13
215.5546866124687
 23
116.2864729458777
 33
0.0
  0
MTEXT
  5
79BD
330
705E
100
AcDbEntity
  8
AM_5
 62
     2
100
AcDbMText
 10
302.0546866124686
 20
122.7864729458777
 30
0.0
 40
7.0
 41
0.0
 71
     5
 72
     1
  1
173
 73
     1
 44
1.0
1001
ACAD
1000
MTEXTBEGIN
1070
    73
1070
     1
1070
    44
1040
1.0
1070
    74
1070
     0
1000
MTEXTEND
  0
POINT
  5
79BE
330
705E
100
AcDbEntity
  8
Defpoints
 62
     0
100
AcDbPoint
 10
388.5546866124686
 20
203.2864729458784
 30
0.0
  0
POINT
  5
79BF
330
705E
100
AcDbEntity
  8
Defpoints
 62
     0
100
AcDbPoint
 10
215.5546866124687
 20
235.2864729458783
 30
0.0
  0
POINT
  5
79C0
330
705E
100
AcDbEntity
  8
Defpoints
 62
     0
100
AcDbPoint
 10
215.5546866124687
 20
116.2864729458777
 30
0.0
  0
ENDBLK
  5
7069
330
705E
100
AcDbEntity
  8
0
100
AcDbBlockEnd
  0
BLOCK
  5
7097
330
708D
100
AcDbEntity
  8
0
100
AcDbBlockBegin
  2
*D16
 70
     1
 10
0.0
 20
0.0
 30
0.0
  3
*D16
  1

  0
LINE
  5
79AF
330
708D
100
AcDbEntity
  8
AM_5
100
AcDbLine
 10
388.5546866124687
 20
201.2864729458784
 30
0.0
 11
388.5546866124687
 21
94.2864729458776
 31
0.0
  0
LINE
  5
79B0
330
708D
100
AcDbEntity
  8
AM_5
100
AcDbLine
 10
181.5546866124687
 20
233.2864729458783
 30
0.0
 11
181.5546866124687
 21
94.28647294587761
 31
0.0
  0
LINE
  5
79B1
330
708D
100
AcDbEntity
  8
AM_5
100
AcDbLine
 10
383.5546866124687
 20
96.28647294587761
 30
0.0
 11
186.5546866124686
 21
96.28647294587761
 31
0.0
  0
SOLID
  5
79B2
330
708D
100
AcDbEntity
  8
AM_5
100
AcDbTrace
 10
383.5546866124687
 20
97.11980627921093
 30
0.0
 11
383.5546866124687
 21
95.45313961254427
 31
0.0
 12
388.5546866124687
 22
96.28647294587761
 32
0.0
 13
388.5546866124687
 23
96.28647294587761
 33
0.0
  0
SOLID
  5
79B3
330
708D
100
AcDbEntity
  8
AM_5
100
AcDbTrace
 10
186.5546866124686
 20
97.11980627921093
 30
0.0
 11
186.5546866124686
 21
95.45313961254427
 31
0.0
 12
181.5546866124687
 22
96.28647294587761
 32
0.0
 13
181.5546866124687
 23
96.28647294587761
 33
0.0
  0
MTEXT
  5
79B4
330
708D
100
AcDbEntity
  8
AM_5
 62
     2
100
AcDbMText
 10
285.0546866124687
 20
102.7871619222555
 30
0.0
 40
7.0
 41
0.0
 71
     5
 72
     1
  1
207
 73
     1
 44
1.0
1001
ACAD
1000
MTEXTBEGIN
1070
    73
1070
     1
1070
    44
1040
1.0
1070
    74
1070
     0
1000
MTEXTEND
  0
POINT
  5
79B5
330
708D
100
AcDbEntity
  8
Defpoints
 62
     0
100
AcDbPoint
 10
388.5546866124687
 20
203.2864729458784
 30
0.0
  0
POINT
  5
79B6
330
708D
100
AcDbEntity
  8
Defpoints
 62
     0
100
AcDbPoint
 10
181.5546866124687
 20
235.2864729458783
 30
0.0
  0
POINT
  5
79B7
330
708D
100
AcDbEntity
  8
Defpoints
 62
     0
100
AcDbPoint
 10
181.5546866124687
 20
96.28647294587761
 30
0.0
  0
ENDBLK
  5
7098
330
708D
100
AcDbEntity
  8
0
100
AcDbBlockEnd
  0
BLOCK
  5
735C
330
7353
100
AcDbEntity
  8
0
100
AcDbBlockBegin
  2
*D17
 70
     1
 10
0.0
 20
0.0
 30
0.0
  3
*D17
  1

  0
LINE
  5
7496
330
7353
100
AcDbEntity
  8
AM_5
100
AcDbLine
 10
188.125440691641
 20
250.8247214713012
 30
0.0
 11
196.4918924428247
 21
260.4230707347888
 31
0.0
  0
LINE
  5
7497
330
7353
100
AcDbEntity
  8
AM_5
100
AcDbLine
 10
196.4918924428247
 20
260.4230707347888
 30
0.0
 11
212.0974042538483
 21
260.4230707347887
 31
0.0
  0
SOLID
  5
7498
330
7353
100
AcDbEntity
  8
AM_5
100
AcDbTrace
 10
187.4972533145225
 20
251.3722843112323
 30
0.0
 11
188.7536280687596
 21
250.2771586313702
 31
0.0
 12
184.8400636520548
 22
247.0555972085898
 32
0.0
 13
184.8400636520548
 23
247.0555972085898
 33
0.0
  0
MTEXT
  5
7499
330
7353
100
AcDbEntity
  8
AM_5
 62
     2
100
AcDbMText
 10
205.7946483483365
 20
266.9230707347887
 30
0.0
 40
7.0
 41
0.0
 71
     5
 72
     1
  1
\U+220510
 73
     1
 44
1.0
1001
ACAD
1000
MTEXTBEGIN
1070
    73
1070
     1
1070
    44
1040
1.0
1070
    74
1070
     0
1000
MTEXTEND
  0
POINT
  5
749A
330
7353
100
AcDbEntity
  8
Defpoints
 62
     0
100
AcDbPoint
 10
184.8400636520548
 20
247.0555972085898
 30
0.0
  0
POINT
  5
749B
330
7353
100
AcDbEntity
  8
Defpoints
 62
     0
100
AcDbPoint
 10
178.2693095728825
 20
239.5173486831669
 30
0.0
  0
ENDBLK
  5
735D
330
7353
100
AcDbEntity
  8
0
100
AcDbBlockEnd
  0
BLOCK
  5
7383
330
737D
100
AcDbEntity
  8
0
100
AcDbBlockBegin
  2
*D18
 70
     1
 10
0.0
 20
0.0
 30
0.0
  3
*D18
  1

  0
LINE
  5
749C
330
737D
100
AcDbEntity
  8
AM_5
100
AcDbLine
 10
446.4976595447356
 20
286.0108267997003
 30
0.0
 11
450.6155204205911
 21
292.6074902092329
 31
0.0
  0
LINE
  5
749D
330
737D
100
AcDbEntity
  8
AM_5
100
AcDbLine
 10
450.6155204205911
 20
292.6074902092329
 30
0.0
 11
465.5210322316147
 21
292.6074902092329
 31
0.0
  0
SOLID
  5
749E
330
737D
100
AcDbEntity
  8
AM_5
100
AcDbTrace
 10
445.790750997301
 20
286.4521030737151
 30
0.0
 11
447.2045680921701
 21
285.5695505256855
 31
0.0
 12
443.8500019006466
 22
281.769375515093
 32
0.0
 13
443.8500019006466
 23
281.769375515093
 33
0.0
  0
MTEXT
  5
749F
330
737D
100
AcDbEntity
  8
AM_5
 62
     2
100
AcDbMText
 10
459.568276326103
 20
299.1074902092329
 30
0.0
 40
7.0
 41
0.0
 71
     5
 72
     1
  1
R10
 73
     1
 44
1.0
1001
ACAD
1000
MTEXTBEGIN
1070
    73
1070
     1
1070
    44
1040
1.0
1070
    74
1070
     0
1000
MTEXTEND
  0
POINT
  5
74A0
330
737D
100
AcDbEntity
  8
Defpoints
 62
     0
100
AcDbPoint
 10
443.8500019006466
 20
281.769375515093
 30
0.0
  0
POINT
  5
74A1
330
737D
100
AcDbEntity
  8
Defpoints
 62
     0
100
AcDbPoint
 10
438.5546866124684
 20
273.2864729458784
 30
0.0
  0
ENDBLK
  5
7384
330
737D
100
AcDbEntity
  8
0
100
AcDbBlockEnd
  0
BLOCK
  5
77BE
330
77B4
100
AcDbEntity
  8
0
100
AcDbBlockBegin
  2
*D19
 70
     1
 10
0.0
 20
0.0
 30
0.0
  3
*D19
  1

  0
LINE
  5
7950
330
77B4
100
AcDbEntity
  8
AM_5
100
AcDbLine
 10
640.5546866124682
 20
203.2864729458784
 30
0.0
 11
664.5546866124681
 21
203.2864729458784
 31
0.0
  0
LINE
  5
7951
330
77B4
100
AcDbEntity
  8
AM_5
100
AcDbLine
 10
640.5546866124682
 20
343.2864729458783
 30
0.0
 11
664.5546866124682
 21
343.2864729458783
 31
0.0
  0
LINE
  5
7952
330
77B4
100
AcDbEntity
  8
AM_5
100
AcDbLine
 10
662.5546866124681
 20
208.2864729458783
 30
0.0
 11
662.5546866124682
 21
338.2864729458783
 31
0.0
  0
SOLID
  5
7953
330
77B4
100
AcDbEntity
  8
AM_5
100
AcDbTrace
 10
661.7213532791347
 20
208.2864729458783
 30
0.0
 11
663.3880199458014
 21
208.2864729458783
 31
0.0
 12
662.5546866124681
 22
203.2864729458784
 32
0.0
 13
662.5546866124681
 23
203.2864729458784
 33
0.0
  0
SOLID
  5
7954
330
77B4
100
AcDbEntity
  8
AM_5
100
AcDbTrace
 10
661.7213532791348
 20
338.2864729458783
 30
0.0
 11
663.3880199458015
 21
338.2864729458783
 31
0.0
 12
662.5546866124682
 22
343.2864729458783
 32
0.0
 13
662.5546866124682
 23
343.2864729458783
 33
0.0
  0
MTEXT
  5
7955
330
77B4
100
AcDbEntity
  8
AM_5
 62
     2
100
AcDbMText
 10
656.0546866124681
 20
273.2864729458784
 30
0.0
 40
7.0
 41
0.0
 71
     5
 72
     1
  1
140
 11
0.0000000000000001
 21
1.0
 31
0.0
 73
     1
 44
1.0
1001
ACAD
1000
MTEXTBEGIN
1070
    73
1070
     1
1070
    44
1040
1.0
1070
    74
1070
     0
1000
MTEXTEND
  0
POINT
  5
7956
330
77B4
100
AcDbEntity
  8
Defpoints
 62
     0
100
AcDbPoint
 10
638.5546866124682
 20
203.2864729458784
 30
0.0
  0
POINT
  5
7957
330
77B4
100
AcDbEntity
  8
Defpoints
 62
     0
100
AcDbPoint
 10
638.5546866124682
 20
343.2864729458783
 30
0.0
  0
POINT
  5
7958
330
77B4
100
AcDbEntity
  8
Defpoints
 62
     0
100
AcDbPoint
 10
662.5546866124682
 20
343.2864729458783
 30
0.0
  0
ENDBLK
  5
77BF
330
77B4
100
AcDbEntity
  8
0
100
AcDbBlockEnd
  0
BLOCK
  5
791B
330
7836
100
AcDbEntity
  8
0
100
AcDbBlockBegin
  2
2-gleisig-damm
 70
     0
 10
0.0
 20
0.0
 30
0.0
  3
2-gleisig-damm
  1

  0
LWPOLYLINE
  5
791C
330
7836
100
AcDbEntity
  8
AM_0
100
AcDbPolyline
 90
        8
 70
     0
 43
0.0
 10
249.9999999999998
 20
180.0
 10
207.9999999999998
 20
180.0
 10
144.9999999999997
 20
135.0
 10
140.9999999999997
 20
135.0
 10
133.9999999999998
 20
140.0
 10
0.0
 20
140.0
 10
0.0
 20
0.0
 10
250.0
 20
0.0
1001
GENIUS_GENREC_14
1002
{
1000
PYDIR
1011
0.0
1021
140.0
1031
0.0
1002
}
1002
{
1000
PXDIR
1011
499.9999999999998
1021
0.0
1031
0.0
1002
}
1002
{
1000
PORI
1011
0.0
1021
0.0
1031
0.0
1002
}
1002
{
1000
PINS
1011
0.0
1021
122.5
1031
0.0
1002
}
1002
{
1000
HVAL
1000
245
1002
}
1002
{
1000
H
1070
     2
1002
}
1002
{
1000
WVAL
1000
500
1002
}
1002
{
1000
W
1070
     2
1002
}
1002
{
1000
C
1070
     3
1002
}
1001
GENIUS_GENOBJ-N-REC_13
1002
{
1000
OWNER
1000
GEN
1002
}
1001
GENIUS_GENODEF_13
1002
{
1000
HIER
1070
     0
1002
}
1002
{
1000
MANEDIT
1070
     0
1002
}
1002
{
1000
NOSEL
1070
     0
1002
}
1002
{
1000
BEHIND
1070
     0
1002
}
1002
{
1000
OTHER
1070
     0
1002
}
1002
{
1000
REACTOR
1002
}
  0
LWPOLYLINE
  5
791D
330
7836
100
AcDbEntity
  8
AM_0
100
AcDbPolyline
 90
        8
 70
     1
 43
0.0
 10
199.9999999999998
 20
80.0
 10
299.9999999999998
 20
80.0
 42
-0.4142135623730959
 10
309.9999999999998
 20
70.0
 10
309.9999999999998
 20
40.0
 42
-0.4142135623730943
 10
299.9999999999998
 20
30.0
 10
199.9999999999998
 20
30.0
 42
-0.4142135623730953
 10
189.9999999999997
 20
40.0
 10
189.9999999999997
 20
70.0
 42
-0.4142135623730946
1001
GENIUS_GENREC_14
1002
{
1000
PYDIR
1011
189.9999999999997
1021
30.0
1031
0.0
1002
}
1002
{
1000
PXDIR
1011
309.9999999999998
1021
80.0
1031
0.0
1002
}
1002
{
1000
PORI
1011
189.9999999999997
1021
80.0
1031
0.0
1002
}
1002
{
1000
PINS
1011
189.9999999999997
1021
80.0
1031
0.0
1002
}
1002
{
1000
PINS2
1011
309.9999999999998
1021
30.0
1031
0.0
1002
}
1002
{
1000
C
1070
     1
1002
}
1001
GENIUS_GENOBJ-N-REC_13
1002
{
1000
OWNER
1000
GEN
1002
}
1001
GENIUS_GENODEF_13
1002
{
1000
HIER
1070
     0
1002
}
1002
{
1000
MANEDIT
1070
     0
1002
}
1002
{
1000
NOSEL
1070
     0
1002
}
1002
{
1000
BEHIND
1070
     0
1002
}
1002
{
1000
OTHER
1070
     0
1002
}
1002
{
1000
REACTOR
1002
}
  0
LINE
  5
791E
330
7836
100
AcDbEntity
  8
AM_7
  6
AM_DIN_G_W050x2
100
AcDbLine
 10
166.9999999999997
 20
110.0
 30
0.0
 11
174.9999999999998
 21
110.0
 31
0.0
1001
GENIUS_GENOREF_13
1005
794E
  0
LINE
  5
791F
330
7836
100
AcDbEntity
  8
AM_7
  6
AM_DIN_G_W050x2
100
AcDbLine
 10
166.9999999999997
 20
110.0
 30
0.0
 11
166.9999999999997
 21
118.0
 31
0.0
1001
GENIUS_GENOREF_13
1005
794E
  0
LINE
  5
7920
330
7836
100
AcDbEntity
  8
AM_7
  6
AM_DIN_G_W050x2
100
AcDbLine
 10
166.9999999999997
 20
110.0
 30
0.0
 11
158.9999999999998
 21
110.0
 31
0.0
1001
GENIUS_GENOREF_13
1005
794E
  0
LINE
  5
7921
330
7836
100
AcDbEntity
  8
AM_7
  6
AM_DIN_G_W050x2
100
AcDbLine
 10
166.9999999999997
 20
110.0
 30
0.0
 11
166.9999999999997
 21
102.0
 31
0.0
1001
GENIUS_GENOREF_13
1005
794E
  0
CIRCLE
  5
7922
330
7836
100
AcDbEntity
  8
0
100
AcDbCircle
 10
166.9999999999997
 20
110.0
 30
0.0
 40
5.0
  0
LINE
  5
7923
330
7836
100
AcDbEntity
  8
AM_7
  6
AM_DIN_G_W050x2
100
AcDbLine
 10
77.0
 20
40.0
 30
0.0
 11
85.0
 21
40.0
 31
0.0
1001
GENIUS_GENOREF_13
1005
794D
  0
LINE
  5
7924
330
7836
100
AcDbEntity
  8
AM_7
  6
AM_DIN_G_W050x2
100
AcDbLine
 10
77.0
 20
40.0
 30
0.0
 11
77.0
 21
48.0
 31
0.0
1001
GENIUS_GENOREF_13
1005
794D
  0
LINE
  5
7925
330
7836
100
AcDbEntity
  8
AM_7
  6
AM_DIN_G_W050x2
100
AcDbLine
 10
77.0
 20
40.0
 30
0.0
 11
69.0
 21
40.0
 31
0.0
1001
GENIUS_GENOREF_13
1005
794D
  0
LINE
  5
7926
330
7836
100
AcDbEntity
  8
AM_7
  6
AM_DIN_G_W050x2
100
AcDbLine
 10
77.0
 20
40.0
 30
0.0
 11
77.0
 21
32.0
 31
0.0
1001
GENIUS_GENOREF_13
1005
794D
  0
CIRCLE
  5
7927
330
7836
100
AcDbEntity
  8
0
100
AcDbCircle
 10
77.0
 20
40.0
 30
0.0
 40
5.0
  0
CIRCLE
  5
7928
330
7836
100
AcDbEntity
  8
0
100
AcDbCircle
 10
366.9999999999998
 20
110.0
 30
0.0
 40
5.0
  0
LINE
  5
7929
330
7836
100
AcDbEntity
  8
AM_7
  6
AM_DIN_G_W050x2
100
AcDbLine
 10
366.9999999999998
 20
110.0
 30
0.0
 11
366.9999999999998
 21
102.0
 31
0.0
1001
GENIUS_GENOREF_13
1005
794C
  0
LINE
  5
792A
330
7836
100
AcDbEntity
  8
AM_7
  6
AM_DIN_G_W050x2
100
AcDbLine
 10
366.9999999999998
 20
110.0
 30
0.0
 11
374.9999999999998
 21
110.0
 31
0.0
1001
GENIUS_GENOREF_13
1005
794C
  0
LINE
  5
792B
330
7836
100
AcDbEntity
  8
AM_7
  6
AM_DIN_G_W050x2
100
AcDbLine
 10
366.9999999999998
 20
110.0
 30
0.0
 11
366.9999999999998
 21
118.0
 31
0.0
1001
GENIUS_GENOREF_13
1005
794C
  0
LINE
  5
792C
330
7836
100
AcDbEntity
  8
AM_7
  6
AM_DIN_G_W050x2
100
AcDbLine
 10
366.9999999999998
 20
110.0
 30
0.0
 11
358.9999999999998
 21
110.0
 31
0.0
1001
GENIUS_GENOREF_13
1005
794C
  0
CIRCLE
  5
792D
330
7836
100
AcDbEntity
  8
0
100
AcDbCircle
 10
456.9999999999997
 20
40.0
 30
0.0
 40
5.0
  0
LINE
  5
792E
330
7836
100
AcDbEntity
  8
AM_7
  6
AM_DIN_G_W050x2
100
AcDbLine
 10
456.9999999999997
 20
40.0
 30
0.0
 11
456.9999999999997
 21
32.0
 31
0.0
1001
GENIUS_GENOREF_13
1005
794B
  0
LINE
  5
792F
330
7836
100
AcDbEntity
  8
AM_7
  6
AM_DIN_G_W050x2
100
AcDbLine
 10
456.9999999999997
 20
40.0
 30
0.0
 11
464.9999999999997
 21
40.0
 31
0.0
1001
GENIUS_GENOREF_13
1005
794B
  0
LINE
  5
7930
330
7836
100
AcDbEntity
  8
AM_7
  6
AM_DIN_G_W050x2
100
AcDbLine
 10
456.9999999999997
 20
40.0
 30
0.0
 11
456.9999999999997
 21
48.0
 31
0.0
1001
GENIUS_GENOREF_13
1005
794B
  0
LINE
  5
7931
330
7836
100
AcDbEntity
  8
AM_7
  6
AM_DIN_G_W050x2
100
AcDbLine
 10
456.9999999999997
 20
40.0
 30
0.0
 11
448.9999999999997
 21
40.0
 31
0.0
1001
GENIUS_GENOREF_13
1005
794B
  0
LINE
  5
7932
330
7836
100
AcDbEntity
  8
AM_7
  6
AM_DIN_G_W050x2
100
AcDbLine
 10
132.9999999999998
 20
110.0
 30
0.0
 11
140.9999999999997
 21
110.0
 31
0.0
1001
GENIUS_GENOREF_13
1005
794A
  0
LINE
  5
7933
330
7836
100
AcDbEntity
  8
AM_7
  6
AM_DIN_G_W050x2
100
AcDbLine
 10
132.9999999999998
 20
110.0
 30
0.0
 11
132.9999999999998
 21
118.0
 31
0.0
1001
GENIUS_GENOREF_13
1005
794A
  0
LINE
  5
7934
330
7836
100
AcDbEntity
  8
AM_7
  6
AM_DIN_G_W050x2
100
AcDbLine
 10
132.9999999999998
 20
110.0
 30
0.0
 11
124.9999999999998
 21
110.0
 31
0.0
1001
GENIUS_GENOREF_13
1005
794A
  0
LINE
  5
7935
330
7836
100
AcDbEntity
  8
AM_7
  6
AM_DIN_G_W050x2
100
AcDbLine
 10
132.9999999999998
 20
110.0
 30
0.0
 11
132.9999999999998
 21
102.0
 31
0.0
1001
GENIUS_GENOREF_13
1005
794A
  0
CIRCLE
  5
7936
330
7836
100
AcDbEntity
  8
0
100
AcDbCircle
 10
132.9999999999998
 20
110.0
 30
0.0
 40
5.0
  0
LINE
  5
7937
330
7836
100
AcDbEntity
  8
AM_7
  6
AM_DIN_G_W050x2
100
AcDbLine
 10
43.0
 20
40.0
 30
0.0
 11
51.0
 21
40.0
 31
0.0
1001
GENIUS_GENOREF_13
1005
7949
  0
LINE
  5
7938
330
7836
100
AcDbEntity
  8
AM_7
  6
AM_DIN_G_W050x2
100
AcDbLine
 10
43.0
 20
40.0
 30
0.0
 11
43.0
 21
48.0
 31
0.0
1001
GENIUS_GENOREF_13
1005
7949
  0
LINE
  5
7939
330
7836
100
AcDbEntity
  8
AM_7
  6
AM_DIN_G_W050x2
100
AcDbLine
 10
43.0
 20
40.0
 30
0.0
 11
35.0
 21
40.0
 31
0.0
1001
GENIUS_GENOREF_13
1005
7949
  0
LINE
  5
793A
330
7836
100
AcDbEntity
  8
AM_7
  6
AM_DIN_G_W050x2
100
AcDbLine
 10
43.0
 20
40.0
 30
0.0
 11
43.0
 21
32.0
 31
0.0
1001
GENIUS_GENOREF_13
1005
7949
  0
CIRCLE
  5
793B
330
7836
100
AcDbEntity
  8
0
100
AcDbCircle
 10
43.0
 20
40.0
 30
0.0
 40
5.0
  0
CIRCLE
  5
793C
330
7836
100
AcDbEntity
  8
0
100
AcDbCircle
 10
332.9999999999998
 20
110.0
 30
0.0
 40
5.0
  0
LINE
  5
793D
330
7836
100
AcDbEntity
  8
AM_7
  6
AM_DIN_G_W050x2
100
AcDbLine
 10
332.9999999999998
 20
110.0
 30
0.0
 11
332.9999999999998
 21
102.0
 31
0.0
1001
GENIUS_GENOREF_13
1005
7948
  0
LINE
  5
793E
330
7836
100
AcDbEntity
  8
AM_7
  6
AM_DIN_G_W050x2
100
AcDbLine
 10
332.9999999999998
 20
110.0
 30
0.0
 11
340.9999999999998
 21
110.0
 31
0.0
1001
GENIUS_GENOREF_13
1005
7948
  0
LINE
  5
793F
330
7836
100
AcDbEntity
  8
AM_7
  6
AM_DIN_G_W050x2
100
AcDbLine
 10
332.9999999999998
 20
110.0
 30
0.0
 11
332.9999999999998
 21
118.0
 31
0.0
1001
GENIUS_GENOREF_13
1005
7948
  0
LINE
  5
7940
330
7836
100
AcDbEntity
  8
AM_7
  6
AM_DIN_G_W050x2
100
AcDbLine
 10
332.9999999999998
 20
110.0
 30
0.0
 11
324.9999999999998
 21
110.0
 31
0.0
1001
GENIUS_GENOREF_13
1005
7948
  0
CIRCLE
  5
7941
330
7836
100
AcDbEntity
  8
0
100
AcDbCircle
 10
422.9999999999997
 20
40.0
 30
0.0
 40
5.0
  0
LINE
  5
7942
330
7836
100
AcDbEntity
  8
AM_7
  6
AM_DIN_G_W050x2
100
AcDbLine
 10
422.9999999999997
 20
40.0
 30
0.0
 11
422.9999999999997
 21
32.0
 31
0.0
1001
GENIUS_GENOREF_13
1005
7947
  0
LINE
  5
7943
330
7836
100
AcDbEntity
  8
AM_7
  6
AM_DIN_G_W050x2
100
AcDbLine
 10
422.9999999999997
 20
40.0
 30
0.0
 11
430.9999999999997
 21
40.0
 31
0.0
1001
GENIUS_GENOREF_13
1005
7947
  0
LINE
  5
7944
330
7836
100
AcDbEntity
  8
AM_7
  6
AM_DIN_G_W050x2
100
AcDbLine
 10
422.9999999999997
 20
40.0
 30
0.0
 11
422.9999999999997
 21
48.0
 31
0.0
1001
GENIUS_GENOREF_13
1005
7947
  0
LINE
  5
7945
330
7836
100
AcDbEntity
  8
AM_7
  6
AM_DIN_G_W050x2
100
AcDbLine
 10
422.9999999999997
 20
40.0
 30
0.0
 11
414.9999999999997
 21
40.0
 31
0.0
1001
GENIUS_GENOREF_13
1005
7947
  0
LWPOLYLINE
  5
7946
330
7836
100
AcDbEntity
  8
AM_0
100
AcDbPolyline
 90
        8
 70
     0
 43
0.0
 10
249.9999999999998
 20
180.0
 10
291.9999999999998
 20
180.0
 10
355.0
 20
135.0
 10
359.0
 20
135.0
 10
366.0
 20
140.0
 10
499.9999999999995
 20
140.0
 10
499.9999999999995
 20
0.0
 10
249.9999999999996
 20
0.0
1001
GENIUS_GENREC_14
1002
{
1000
PYDIR
1011
499.9999999999995
1021
140.0
1031
0.0
1002
}
1002
{
1000
PXDIR
1011
-0.0000000000002274
1021
0.0
1031
0.0
1002
}
1002
{
1000
PORI
1011
499.9999999999995
1021
0.0
1031
0.0
1002
}
1002
{
1000
PINS
1011
499.9999999999995
1021
122.5
1031
0.0
1002
}
1002
{
1000
HVAL
1000
245
1002
}
1002
{
1000
H
1070
     2
1002
}
1002
{
1000
WVAL
1000
500
1002
}
1002
{
1000
W
1070
     2
1002
}
1002
{
1000
C
1070
     3
1002
}
1001
GENIUS_GENOBJ-N-REC_13
1002
{
1000
OWNER
1000
GEN
1002
}
1001
GENIUS_GENODEF_13
1002
{
1000
HIER
1070
     0
1002
}
1002
{
1000
MANEDIT
1070
     0
1002
}
1002
{
1000
NOSEL
1070
     0
1002
}
1002
{
1000
BEHIND
1070
     0
1002
}
1002
{
1000
OTHER
1070
     0
1002
}
1002
{
1000
REACTOR
1002
}
  0
POINT
  5
7947
330
7836
100
AcDbEntity
  8
0
 60
     1
100
AcDbPoint
 10
755.5904992435571
 20
-244.7651115509617
 30
0.0
1001
GENIUS_GENOBJ-N-CRS_13
1002
{
1000
OWNER
1000
GEN
1002
}
1001
GENIUS_GENODEF_13
1002
{
1000
HIER
1070
    10
1002
}
1002
{
1000
MANEDIT
1070
     0
1002
}
1002
{
1000
NOSEL
1070
     0
1002
}
1002
{
1000
BEHIND
1070
     0
1002
}
1002
{
1000
OTHER
1070
     0
1002
}
1002
{
1000
REACTOR
1002
}
1001
GENIUS_GENOLIS_13
1002
{
1000
ENT
1005
7942
1005
7943
1005
7944
1005
7945
1002
}
1001
GENIUS_GENOENT_13
1002
{
1000
MYREF
1005
7947
1002
}
1002
{
1000
GRP
1005
0
1002
}
  0
POINT
  5
7948
330
7836
100
AcDbEntity
  8
0
 60
     1
100
AcDbPoint
 10
755.5904992435571
 20
-244.7651115509617
 30
0.0
1001
GENIUS_GENOLIS_13
1002
{
1000
ENT
1005
793D
1005
793E
1005
793F
1005
7940
1002
}
1001
GENIUS_GENOENT_13
1002
{
1000
MYREF
1005
7948
1002
}
1002
{
1000
GRP
1005
0
1002
}
1001
GENIUS_GENOBJ-N-CRS_13
1002
{
1000
OWNER
1000
GEN
1002
}
1001
GENIUS_GENODEF_13
1002
{
1000
HIER
1070
    10
1002
}
1002
{
1000
MANEDIT
1070
     0
1002
}
1002
{
1000
NOSEL
1070
     0
1002
}
1002
{
1000
BEHIND
1070
     0
1002
}
1002
{
1000
OTHER
1070
     0
1002
}
1002
{
1000
REACTOR
1002
}
  0
POINT
  5
7949
330
7836
100
AcDbEntity
  8
0
 60
     1
100
AcDbPoint
 10
-155.5546866124689
 20
-244.7651115509617
 30
0.0
1001
GENIUS_GENOBJ-N-CRS_13
1002
{
1000
OWNER
1000
GEN
1002
}
1001
GENIUS_GENODEF_13
1002
{
1000
HIER
1070
    10
1002
}
1002
{
1000
MANEDIT
1070
     0
1002
}
1002
{
1000
NOSEL
1070
     0
1002
}
1002
{
1000
BEHIND
1070
     0
1002
}
1002
{
1000
OTHER
1070
     0
1002
}
1002
{
1000
REACTOR
1002
}
1001
GENIUS_GENOLIS_13
1002
{
1000
ENT
1005
793A
1005
7939
1005
7938
1005
7937
1002
}
1001
GENIUS_GENOENT_13
1002
{
1000
MYREF
1005
7949
1002
}
1002
{
1000
GRP
1005
0
1002
}
  0
POINT
  5
794A
330
7836
100
AcDbEntity
  8
0
 60
     1
100
AcDbPoint
 10
-155.5546866124689
 20
-244.7651115509617
 30
0.0
1001
GENIUS_GENOLIS_13
1002
{
1000
ENT
1005
7935
1005
7934
1005
7933
1005
7932
1002
}
1001
GENIUS_GENOENT_13
1002
{
1000
MYREF
1005
794A
1002
}
1002
{
1000
GRP
1005
0
1002
}
1001
GENIUS_GENOBJ-N-CRS_13
1002
{
1000
OWNER
1000
GEN
1002
}
1001
GENIUS_GENODEF_13
1002
{
1000
HIER
1070
    10
1002
}
1002
{
1000
MANEDIT
1070
     0
1002
}
1002
{
1000
NOSEL
1070
     0
1002
}
1002
{
1000
BEHIND
1070
     0
1002
}
1002
{
1000
OTHER
1070
     0
1002
}
1002
{
1000
REACTOR
1002
}
  0
POINT
  5
794B
330
7836
100
AcDbEntity
  8
0
 60
     1
100
AcDbPoint
 10
789.5904992435571
 20
-244.7651115509617
 30
0.0
1001
GENIUS_GENOBJ-N-CRS_13
1002
{
1000
OWNER
1000
GEN
1002
}
1001
GENIUS_GENODEF_13
1002
{
1000
HIER
1070
    10
1002
}
1002
{
1000
MANEDIT
1070
     0
1002
}
1002
{
1000
NOSEL
1070
     0
1002
}
1002
{
1000
BEHIND
1070
     0
1002
}
1002
{
1000
OTHER
1070
     0
1002
}
1002
{
1000
REACTOR
1002
}
1001
GENIUS_GENOLIS_13
1002
{
1000
ENT
1005
792E
1005
792F
1005
7930
1005
7931
1002
}
1001
GENIUS_GENOENT_13
1002
{
1000
MYREF
1005
794B
1002
}
1002
{
1000
GRP
1005
0
1002
}
  0
POINT
  5
794C
330
7836
100
AcDbEntity
  8
0
 60
     1
100
AcDbPoint
 10
789.5904992435571
 20
-244.7651115509617
 30
0.0
1001
GENIUS_GENOLIS_13
1002
{
1000
ENT
1005
7929
1005
792A
1005
792B
1005
792C
1002
}
1001
GENIUS_GENOENT_13
1002
{
1000
MYREF
1005
794C
1002
}
1002
{
1000
GRP
1005
0
1002
}
1001
GENIUS_GENOBJ-N-CRS_13
1002
{
1000
OWNER
1000
GEN
1002
}
1001
GENIUS_GENODEF_13
1002
{
1000
HIER
1070
    10
1002
}
1002
{
1000
MANEDIT
1070
     0
1002
}
1002
{
1000
NOSEL
1070
     0
1002
}
1002
{
1000
BEHIND
1070
     0
1002
}
1002
{
1000
OTHER
1070
     0
1002
}
1002
{
1000
REACTOR
1002
}
  0
POINT
  5
794D
330
7836
100
AcDbEntity
  8
0
 60
     1
100
AcDbPoint
 10
-121.5546866124689
 20
-244.7651115509617
 30
0.0
1001
GENIUS_GENOBJ-N-CRS_13
1002
{
1000
OWNER
1000
GEN
1002
}
1001
GENIUS_GENODEF_13
1002
{
1000
HIER
1070
    10
1002
}
1002
{
1000
MANEDIT
1070
     0
1002
}
1002
{
1000
NOSEL
1070
     0
1002
}
1002
{
1000
BEHIND
1070
     0
1002
}
1002
{
1000
OTHER
1070
     0
1002
}
1002
{
1000
REACTOR
1002
}
1001
GENIUS_GENOLIS_13
1002
{
1000
ENT
1005
7926
1005
7925
1005
7924
1005
7923
1002
}
1001
GENIUS_GENOENT_13
1002
{
1000
MYREF
1005
794D
1002
}
1002
{
1000
GRP
1005
0
1002
}
  0
POINT
  5
794E
330
7836
100
AcDbEntity
  8
0
 60
     1
100
AcDbPoint
 10
-121.5546866124689
 20
-244.7651115509617
 30
0.0
1001
GENIUS_GENOLIS_13
1002
{
1000
ENT
1005
7921
1005
7920
1005
791F
1005
791E
1002
}
1001
GENIUS_GENOENT_13
1002
{
1000
MYREF
1005
794E
1002
}
1002
{
1000
GRP
1005
0
1002
}
1001
GENIUS_GENOBJ-N-CRS_13
1002
{
1000
OWNER
1000
GEN
1002
}
1001
GENIUS_GENODEF_13
1002
{
1000
HIER
1070
    10
1002
}
1002
{
1000
MANEDIT
1070
     0
1002
}
1002
{
1000
NOSEL
1070
     0
1002
}
1002
{
1000
BEHIND
1070
     0
1002
}
1002
{
1000
OTHER
1070
     0
1002
}
1002
{
1000
REACTOR
1002
}
  0
ENDBLK
  5
794F
330
7836
100
AcDbEntity
  8
0
100
AcDbBlockEnd
  0
BLOCK
  5
7973
330
7969
100
AcDbEntity
  8
0
100
AcDbBlockBegin
  2
*D21
 70
     1
 10
0.0
 20
0.0
 30
0.0
  3
*D21
  1

  0
LINE
  5
7A75
330
7969
100
AcDbEntity
  8
AM_5
100
AcDbLine
 10
388.5546866124687
 20
389.2864729458784
 30
0.0
 11
388.5546866124687
 21
321.2168274850396
 31
0.0
  0
LINE
  5
7A76
330
7969
100
AcDbEntity
  8
AM_5
100
AcDbLine
 10
283.5546866124685
 20
336.2864729458784
 30
0.0
 11
283.5546866124685
 21
321.2168274850396
 31
0.0
  0
LINE
  5
7A77
330
7969
100
AcDbEntity
  8
AM_5
100
AcDbLine
 10
383.5546866124687
 20
323.2168274850396
 30
0.0
 11
288.5546866124684
 21
323.2168274850396
 31
0.0
  0
SOLID
  5
7A78
330
7969
100
AcDbEntity
  8
AM_5
100
AcDbTrace
 10
383.5546866124687
 20
324.050160818373
 30
0.0
 11
383.5546866124687
 21
322.3834941517063
 31
0.0
 12
388.5546866124687
 22
323.2168274850396
 32
0.0
 13
388.5546866124687
 23
323.2168274850396
 33
0.0
  0
SOLID
  5
7A79
330
7969
100
AcDbEntity
  8
AM_5
100
AcDbTrace
 10
288.5546866124684
 20
324.050160818373
 30
0.0
 11
288.5546866124684
 21
322.3834941517063
 31
0.0
 12
283.5546866124685
 22
323.2168274850396
 32
0.0
 13
283.5546866124685
 23
323.2168274850396
 33
0.0
  0
MTEXT
  5
7A7A
330
7969
100
AcDbEntity
  8
AM_5
 62
     2
100
AcDbMText
 10
336.0546866124686
 20
329.7168274850396
 30
0.0
 40
7.0
 41
0.0
 71
     5
 72
     1
  1
105
 73
     1
 44
1.0
1001
ACAD
1000
MTEXTBEGIN
1070
    73
1070
     1
1070
    44
1040
1.0
1070
    74
1070
     0
1000
MTEXTEND
  0
POINT
  5
7A7B
330
7969
100
AcDbEntity
  8
Defpoints
 62
     0
100
AcDbPoint
 10
388.5546866124687
 20
391.2864729458783
 30
0.0
  0
POINT
  5
7A7C
330
7969
100
AcDbEntity
  8
Defpoints
 62
     0
100
AcDbPoint
 10
283.5546866124685
 20
338.2864729458784
 30
0.0
  0
POINT
  5
7A7D
330
7969
100
AcDbEntity
  8
Defpoints
 62
     0
100
AcDbPoint
 10
283.5546866124685
 20
323.2168274850396
 30
0.0
  0
ENDBLK
  5
7974
330
7969
100
AcDbEntity
  8
0
100
AcDbBlockEnd
  0
BLOCK
  5
7999
330
798F
100
AcDbEntity
  8
0
100
AcDbBlockBegin
  2
*D22
 70
     1
 10
0.0
 20
0.0
 30
0.0
  3
*D22
  1

  0
LINE
  5
7A0C
330
798F
100
AcDbEntity
  8
AM_5
100
AcDbLine
 10
138.5546866124687
 20
345.2864729458783
 30
0.0
 11
138.5546866124687
 21
369.2864729458783
 31
0.0
  0
LINE
  5
7A0D
330
798F
100
AcDbEntity
  8
AM_5
100
AcDbLine
 10
272.5546866124684
 20
345.2864729458783
 30
0.0
 11
272.5546866124684
 21
369.2864729458783
 31
0.0
  0
LINE
  5
7A0E
330
798F
100
AcDbEntity
  8
AM_5
100
AcDbLine
 10
143.5546866124687
 20
367.2864729458783
 30
0.0
 11
267.5546866124685
 21
367.2864729458783
 31
0.0
  0
SOLID
  5
7A0F
330
798F
100
AcDbEntity
  8
AM_5
100
AcDbTrace
 10
143.5546866124687
 20
368.1198062792116
 30
0.0
 11
143.5546866124687
 21
366.453139612545
 31
0.0
 12
138.5546866124687
 22
367.2864729458783
 32
0.0
 13
138.5546866124687
 23
367.2864729458783
 33
0.0
  0
SOLID
  5
7A10
330
798F
100
AcDbEntity
  8
AM_5
100
AcDbTrace
 10
267.5546866124685
 20
368.1198062792116
 30
0.0
 11
267.5546866124685
 21
366.453139612545
 31
0.0
 12
272.5546866124684
 22
367.2864729458783
 32
0.0
 13
272.5546866124684
 23
367.2864729458783
 33
0.0
  0
MTEXT
  5
7A11
330
798F
100
AcDbEntity
  8
AM_5
 62
     2
100
AcDbMText
 10
205.5546866124686
 20
373.7864729458783
 30
0.0
 40
7.0
 41
0.0
 71
     5
 72
     1
  1
134
 73
     1
 44
1.0
1001
ACAD
1000
MTEXTBEGIN
1070
    73
1070
     1
1070
    44
1040
1.0
1070
    74
1070
     0
1000
MTEXTEND
  0
POINT
  5
7A12
330
798F
100
AcDbEntity
  8
Defpoints
 62
     0
100
AcDbPoint
 10
138.5546866124687
 20
343.2864729458783
 30
0.0
  0
POINT
  5
7A13
330
798F
100
AcDbEntity
  8
Defpoints
 62
     0
100
AcDbPoint
 10
272.5546866124684
 20
343.2864729458783
 30
0.0
  0
POINT
  5
7A14
330
798F
100
AcDbEntity
  8
Defpoints
 62
     0
100
AcDbPoint
 10
272.5546866124684
 20
367.2864729458783
 30
0.0
  0
ENDBLK
  5
799A
330
798F
100
AcDbEntity
  8
0
100
AcDbBlockEnd
  0
BLOCK
  5
7ABE
330
7AB9
100
AcDbEntity
  8
0
100
AcDbBlockBegin
  2
*S23
 70
     1
 10
0.0
 20
0.0
 30
0.0
  3
*S23
  1

  0
LINE
  5
7ABA
330
7AB9
100
AcDbEntity
  8
AM_5
100
AcDbLine
 10
544.0800147535749
 20
451.5580260735474
 30
0.0
 11
440.2055265645985
 21
451.5580260735474
 31
0.0
  0
LINE
  5
7ABB
330
7AB9
100
AcDbEntity
  8
AM_5
100
AcDbLine
 10
440.2055265645985
 20
451.5580260735474
 30
0.0
 11
429.6169720398317
 21
398.1528149225465
 31
0.0
  0
TRACE
  5
7ABC
330
7AB9
100
AcDbEntity
  8
AM_5
100
AcDbTrace
 10
428.7130009733474
 20
398.3320436292586
 30
0.0
 11
430.520943106316
 21
397.9735862158344
 31
0.0
 12
428.2555948476308
 22
391.2864729458783
 32
0.0
 13
428.2555948476308
 23
391.2864729458783
 33
0.0
  0
MTEXT
  5
7ABD
330
7AB9
100
AcDbEntity
  8
AM_5
 62
     2
100
AcDbMText
 10
447.2055265645986
 20
455.0580260735473
 30
0.0
 40
7.0
 41
0.0
 71
     7
 72
     5
  1
Schienenoberkante (SO)
  7
ACDINTS
 73
     1
 44
1.0
1001
ACAD
1000
MTEXTBEGIN
1070
    73
1070
     1
1070
    44
1040
1.0
1070
    74
1070
     0
1000
MTEXTEND
  0
ENDBLK
  5
7ABF
330
7AB9
100
AcDbEntity
  8
0
100
AcDbBlockEnd
  0
ENDSEC
  0
SECTION
  2
ENTITIES
  0
LINE
  5
4ED
330
1F
100
AcDbEntity
  8
AM_7
100
AcDbLine
 10
388.5546866124687
 20
405.852473817844
 30
0.0
 11
388.5546866124687
 21
200.2864729458784
 31
0.0
1001
GENIUS_GENODEF_13
1002
{
1000
HIER
1070
     0
1002
}
1002
{
1000
MANEDIT
1070
     0
1002
}
1002
{
1000
NOSEL
1070
     0
1002
}
1002
{
1000
BEHIND
1070
     0
1002
}
1002
{
1000
OTHER
1070
     0
1002
}
1002
{
1000
REACTOR
1002
}
1001
GENIUS_GENOBJ-N-CEN_13
1002
{
1000
OWNER
1000
GEN
1002
}
  0
LINE
  5
6F7
330
1F
100
AcDbEntity
  8
AM_7
100
AcDbLine
 10
339.3977831189377
 20
391.2864729458783
 30
0.0
 11
437.7115901059997
 21
391.2864729458783
 31
0.0
1001
GENIUS_GENOBJ-N-CEN_13
1002
{
1000
OWNER
1000
GEN
1002
}
1001
GENIUS_GENODEF_13
1002
{
1000
HIER
1070
     0
1002
}
1002
{
1000
MANEDIT
1070
     0
1002
}
1002
{
1000
NOSEL
1070
     0
1002
}
1002
{
1000
BEHIND
1070
     0
1002
}
1002
{
1000
OTHER
1070
     0
1002
}
1002
{
1000
REACTOR
1002
}
  0
LWPOLYLINE
  5
1403
330
1F
100
AcDbEntity
  8
AM_VIEWS
100
AcDbPolyline
 90
        4
 70
     1
 43
0.0
 10
0.4694220429089456
 20
49.97414149387066
 10
692.6401998826265
 20
49.97414149387066
 10
692.6401998826265
 20
510.8054630300842
 10
0.4694220429089456
 20
510.8054630300842
1001
GENIUS_GENODEF_13
1002
{
1000
HIER
1070
     0
1002
}
1002
{
1000
MANEDIT
1070
     0
1002
}
1002
{
1000
NOSEL
1070
     0
1002
}
1002
{
1000
BEHIND
1070
     0
1002
}
1002
{
1000
OTHER
1070
     0
1002
}
1002
{
1000
REACTOR
1002
}
1001
GENIUS_GENOBJ-N-SDF_13
1002
{
1000
OWNER
1000
GEN
1002
}
1001
GENIUS_GENSCREG_15
1040
2.0
1040
1.0
1011
0.4694220429089456
1021
49.97414149387066
1031
0.0
1011
692.6401998826265
1021
510.8054630300842
1031
0.0
1070
     2
  0
DIMENSION
  5
232A
330
1F
100
AcDbEntity
  8
AM_5
100
AcDbDimension
  2
*D5
 10
94.55468661246866
 20
243.2864729458783
 30
0.0
 11
88.05468661246862
 21
313.2864729458784
 31
0.0
 70
    32
 71
     5
 42
140.0
  3
AM_DIN
100
AcDbAlignedDimension
 13
363.5546866124687
 23
383.2864729458784
 33
0.0
 14
190.5546866124686
 24
243.2864729458783
 34
0.0
 50
90.0
100
AcDbRotatedDimension
1001
ACAD
1000
DSTYLE
1002
{
1070
    40
1040
2.0
1070
   271
1070
     1
1002
}
  0
DIMENSION
  5
232B
330
1F
100
AcDbEntity
  8
AM_5
100
AcDbDimension
  2
*D4
 10
114.5546866124687
 20
313.2864729458784
 30
0.0
 11
108.0546866124686
 21
348.2864729458784
 31
0.0
 70
    32
 71
     5
 42
70.0
  3
AM_DIN
100
AcDbAlignedDimension
 13
363.5546866124687
 23
383.2864729458784
 33
0.0
 14
280.5546866124687
 24
313.2864729458784
 34
0.0
 50
90.0
100
AcDbRotatedDimension
1001
ACAD
1000
DSTYLE
1002
{
1070
    40
1040
2.0
1070
   271
1070
     1
1002
}
  0
DIMENSION
  5
232D
330
1F
100
AcDbEntity
  8
AM_5
100
AcDbDimension
  2
*D3
 10
74.55468661246867
 20
203.2864729458784
 30
0.0
 11
68.05468661246864
 21
293.2864729458784
 31
0.0
 70
    32
 71
     5
 42
180.0
  3
AM_DIN
100
AcDbAlignedDimension
 13
363.5546866124687
 23
383.2864729458784
 33
0.0
 14
138.5546866124687
 24
203.2864729458784
 34
0.0
 50
90.0
100
AcDbRotatedDimension
1001
ACAD
1000
DSTYLE
1002
{
1070
    40
1040
2.0
1070
   271
1070
     1
1002
}
  0
DIMENSION
  5
232E
330
1F
100
AcDbEntity
  8
AM_5
100
AcDbDimension
  2
*D9
 10
388.5546866124687
 20
176.2864729458781
 30
0.0
 11
358.5546866124687
 21
182.7864729458781
 31
0.0
 70
    32
 71
     5
 42
60.0
  3
AM_DIN
100
AcDbAlignedDimension
 13
328.5546866124687
 23
243.2864729458783
 33
0.0
 14
388.5546866124687
 24
203.2864729458784
 34
0.0
100
AcDbRotatedDimension
1001
ACAD
1000
DSTYLE
1002
{
1070
    40
1040
2.0
1070
   271
1070
     1
1002
}
  0
DIMENSION
  5
232F
330
1F
100
AcDbEntity
  8
AM_5
100
AcDbDimension
  2
*D8
 10
638.5546866124687
 20
76.28647294587747
 30
0.0
 11
388.5546866124687
 21
82.78647294587747
 31
0.0
 70
    32
 71
     5
 42
500.0
  3
AM_DIN
100
AcDbAlignedDimension
 13
138.5546866124687
 23
203.2864729458784
 33
0.0
 14
638.5546866124687
 24
203.2864729458784
 34
0.0
100
AcDbRotatedDimension
1001
ACAD
1000
DSTYLE
1002
{
1070
    40
1040
2.0
1070
   271
1070
     1
1002
}
  0
DIMENSION
  5
2330
330
1F
100
AcDbEntity
  8
AM_5
100
AcDbDimension
  2
*D7
 10
271.5546866124685
 20
136.2864729458779
 30
0.0
 11
330.0546866124686
 21
142.7864729458779
 31
0.0
 70
    32
 71
     5
 42
117.0000000000002
  3
AM_DIN
100
AcDbAlignedDimension
 13
388.5546866124687
 23
200.2864729458784
 33
0.0
 14
271.5546866124685
 24
305.2864729458784
 34
0.0
100
AcDbRotatedDimension
1001
ACAD
1000
DSTYLE
1002
{
1070
    40
1040
2.0
1070
   271
1070
     1
1002
}
  0
DIMENSION
  5
2332
330
1F
100
AcDbEntity
  8
AM_5
100
AcDbDimension
  2
*D6
 10
305.5546866124684
 20
156.286472945878
 30
0.0
 11
347.0546866124686
 21
162.786472945878
 31
0.0
 70
    32
 71
     5
 42
83.00000000000023
  3
AM_DIN
100
AcDbAlignedDimension
 13
388.5546866124687
 23
200.2864729458784
 33
0.0
 14
305.5546866124684
 24
305.2864729458784
 34
0.0
100
AcDbRotatedDimension
1001
ACAD
1000
DSTYLE
1002
{
1070
    40
1040
2.0
1070
   271
1070
     1
1002
}
  0
DIMENSION
  5
2339
330
1F
100
AcDbEntity
  8
AM_5
100
AcDbDimension
  2
*D10
 10
472.5546866124687
 20
233.2864729458783
 30
0.0
 11
466.0546866124686
 21
258.2864729458784
 31
0.0
 70
    32
 71
     5
 42
50.00000000000003
  3
AM_DIN
100
AcDbAlignedDimension
 13
438.5546866124687
 23
283.2864729458783
 33
0.0
 14
438.5546866124687
 24
233.2864729458783
 34
0.0
 50
90.0
100
AcDbRotatedDimension
1001
ACAD
1000
DSTYLE
1002
{
1070
    40
1040
2.0
1070
   271
1070
     1
1002
}
  0
DIMENSION
  5
233B
330
1F
100
AcDbEntity
  8
AM_5
100
AcDbDimension
  2
*D11
 10
388.5546866124687
 20
415.2864729458784
 30
0.0
 11
367.5546866124686
 21
421.7871619222563
 31
0.0
 70
    32
 71
     5
 42
42.00000000000023
  3
AM_DIN
100
AcDbAlignedDimension
 13
346.5546866124685
 23
383.2864729458784
 33
0.0
 14
388.5546866124687
 24
383.2864729458784
 34
0.0
100
AcDbRotatedDimension
1001
ACAD
1000
DSTYLE
1002
{
1070
    40
1040
2.0
1070
   271
1070
     1
1002
}
  0
DIMENSION
  5
233C
330
1F
100
AcDbEntity
  8
AM_5
100
AcDbDimension
  2
*D12
 10
244.8455408725668
 20
343.2864729458783
 30
0.0
 11
244.8455408725667
 21
357.831447692709
 31
0.0
 70
   160
 71
     5
 42
5.0
  3
AM_DIN
100
AcDbAlignedDimension
 13
279.5546866124685
 23
338.2864729458784
 33
0.0
 14
272.5546866124684
 24
343.2864729458783
 34
0.0
 50
90.0
100
AcDbRotatedDimension
1001
ACAD
1000
DSTYLE
1002
{
1070
    40
1040
2.0
1070
   271
1070
     1
1002
}
  0
INSERT
  5
3B13
330
1F
100
AcDbEntity
  8
AM_5
100
AcDbBlockReference
  2
*S23
 10
0.0
 20
0.0
 30
0.0
  0
DIMENSION
  5
4CF9
330
1F
100
AcDbEntity
  8
AM_5
100
AcDbDimension
  2
*D13
 10
279.5546866124685
 20
323.2168274850396
 30
0.0
 11
264.8046866124685
 21
329.7168274850396
 31
0.0
 70
    32
 71
     5
 42
4.0
  3
AM_DIN
100
AcDbAlignedDimension
 13
283.5546866124685
 23
338.2864729458784
 33
0.0
 14
279.5546866124685
 24
338.2864729458784
 34
0.0
 50
0.000000000001832
100
AcDbRotatedDimension
1001
ACAD
1000
DSTYLE
1002
{
1070
    40
1040
2.0
1070
   271
1070
     1
1002
}
  0
DIMENSION
  5
6EFE
330
1F
100
AcDbEntity
  8
AM_5
100
AcDbDimension
  2
*D14
 10
413.3686833297954
 20
391.2864729458783
 30
0.0
 11
406.8686833297952
 21
405.6864729458784
 31
0.0
 70
    32
 71
     5
 42
8.0
  3
AM_DIN$0
100
AcDbAlignedDimension
 13
413.5546866124687
 23
383.2864729458784
 33
0.0
 14
416.2024809823154
 24
391.2864729458783
 34
0.0
 50
90.0
100
AcDbRotatedDimension
1001
ACAD
1000
DSTYLE
1002
{
1070
    40
1040
2.0
1070
   271
1070
     1
1002
}
  0
DIMENSION
  5
705D
330
1F
100
AcDbEntity
  8
AM_5
100
AcDbDimension
  2
*D15
 10
215.5546866124687
 20
116.2864729458777
 30
0.0
 11
302.0546866124686
 21
122.7864729458777
 31
0.0
 70
    32
 71
     5
 42
172.9999999999999
  3
AM_DIN$0
100
AcDbAlignedDimension
 13
388.5546866124686
 23
203.2864729458784
 33
0.0
 14
215.5546866124687
 24
235.2864729458783
 34
0.0
 50
0.0000000000002036
100
AcDbRotatedDimension
1001
ACAD
1000
DSTYLE
1002
{
1070
    40
1040
2.0
1070
   271
1070
     1
1002
}
  0
DIMENSION
  5
708C
330
1F
100
AcDbEntity
  8
AM_5
100
AcDbDimension
  2
*D16
 10
181.5546866124687
 20
96.28647294587761
 30
0.0
 11
285.0546866124687
 21
102.7871619222555
 31
0.0
 70
    32
 71
     5
 42
207.0
  3
AM_DIN$0
100
AcDbAlignedDimension
 13
388.5546866124687
 23
203.2864729458784
 33
0.0
 14
181.5546866124687
 24
235.2864729458783
 34
0.0
 50
0.0000000000002036
100
AcDbRotatedDimension
1001
ACAD
1000
DSTYLE
1002
{
1070
    40
1040
2.0
1070
   271
1070
     1
1002
}
  0
DIMENSION
  5
7352
330
1F
100
AcDbEntity
  8
AM_5
100
AcDbDimension
  2
*D17
 10
178.2693095728825
 20
239.5173486831669
 30
0.0
 11
205.7946483483365
 21
260.4230707347887
 31
0.0
 70
   163
 71
     5
 42
10.0
  3
AM_DIN$3
100
AcDbDiametricDimension
 15
184.8400636520548
 25
247.0555972085898
 35
0.0
 40
0.0
1001
ACAD
1000
DSTYLE
1002
{
1070
    40
1040
2.0
1070
   271
1070
     1
1002
}
  0
DIMENSION
  5
737C
330
1F
100
AcDbEntity
  8
AM_5
100
AcDbDimension
  2
*D18
 10
438.5546866124684
 20
273.2864729458784
 30
0.0
 11
459.568276326103
 21
292.6074902092329
 31
0.0
 70
   164
 71
     5
 42
10.0
  3
AM_DIN$4
100
AcDbRadialDimension
 15
443.8500019006466
 25
281.769375515093
 35
0.0
 40
0.0
1001
ACAD
1000
DSTYLE
1002
{
1070
    40
1040
2.0
1070
   271
1070
     1
1002
}
  0
DIMENSION
  5
77B3
330
1F
100
AcDbEntity
  8
AM_5
100
AcDbDimension
  2
*D19
 10
662.5546866124682
 20
343.2864729458783
 30
0.0
 11
656.0546866124681
 21
273.2864729458784
 31
0.0
 70
    32
 71
     5
 42
139.9999999999999
  3
AM_DIN$0
100
AcDbAlignedDimension
 13
638.5546866124682
 23
203.2864729458784
 33
0.0
 14
638.5546866124682
 24
343.2864729458783
 34
0.0
 50
90.0
100
AcDbRotatedDimension
1001
ACAD
1000
DSTYLE
1002
{
1070
    40
1040
2.0
1070
   271
1070
     1
1002
}
  0
INSERT
  5
7884
102
{ACAD_REACTORS
330
7976
330
799C
102
}
330
1F
100
AcDbEntity
  8
AM_0
100
AcDbBlockReference
  2
2-gleisig-damm
 10
138.5546866124687
 20
203.2864729458784
 30
0.0
  0
DIMENSION
  5
7968
102
{ACAD_XDICTIONARY
360
7975
102
}
102
{ACAD_REACTORS
330
7976
102
}
330
1F
100
AcDbEntity
  8
AM_5
100
AcDbDimension
  2
*D21
 10
283.5546866124685
 20
323.2168274850396
 30
0.0
 11
336.0546866124686
 21
329.7168274850396
 31
0.0
 70
    32
 71
     5
 42
105.0000000000002
  3
AM_DIN$0
100
AcDbAlignedDimension
 13
388.5546866124687
 23
391.2864729458783
 33
0.0
 14
283.5546866124685
 24
338.2864729458784
 34
0.0
 50
0.0000000000000114
100
AcDbRotatedDimension
1001
ACAD
1000
DSTYLE
1002
{
1070
    40
1040
2.0
1070
   271
1070
     1
1002
}
  0
DIMENSION
  5
798E
102
{ACAD_XDICTIONARY
360
799B
102
}
102
{ACAD_REACTORS
330
799C
102
}
330
1F
100
AcDbEntity
  8
AM_5
100
AcDbDimension
  2
*D22
 10
272.5546866124684
 20
367.2864729458783
 30
0.0
 11
205.5546866124686
 21
373.7864729458783
 31
0.0
 70
    32
 71
     5
 42
133.9999999999998
  3
AM_DIN$0
100
AcDbAlignedDimension
 13
138.5546866124687
 23
343.2864729458783
 33
0.0
 14
272.5546866124684
 24
343.2864729458783
 34
0.0
 50
0.0000000000000114
100
AcDbRotatedDimension
1001
ACAD
1000
DSTYLE
1002
{
1070
    40
1040
2.0
1070
   271
1070
     1
1002
}
  0
VIEWPORT
  5
20D0
102
{ACAD_XDICTIONARY
360
7DA5
102
}
330
20CF
100
AcDbEntity
 67
     1
  8
0
100
AcDbViewport
 10
210.0000029338453
 20
148.5000020746477
 30
0.0
 40
656.3474439879134
 41
299.8787142759811
 68
     1
 69
     1
 12
210.0000029338453
 22
148.5000020746477
 13
0.0
 23
0.0
 14
2.5
 24
2.5
 15
10.0
 25
10.0
 16
0.0
 26
0.0
 36
1.0
 17
0.0
 27
0.0
 37
0.0
 42
50.0
 43
0.0
 44
0.0
 45
299.8787142759811
 50
0.0
 51
0.0
 72
   100
 90
    32800
  1

281
     0
 71
     1
 74
     0
110
0.0
120
0.0
130
0.0
111
1.0
121
0.0
131
0.0
112
0.0
122
1.0
132
0.0
 79
     0
146
0.0
  0
INSERT
  5
20D1
330
20CF
100
AcDbEntity
 67
     1
  8
AM_0
100
AcDbBlockReference
  2
DIN-A3
 10
0.0
 20
0.0
 30
0.0
1001
GENIUS_GENOREF_13
1005
20DB
1001
GENIUS_GENODEF_13
1002
{
1000
HIER
1070
     0
1002
}
1002
{
1000
MANEDIT
1070
     0
1002
}
1002
{
1000
NOSEL
1070
     0
1002
}
1002
{
1000
BEHIND
1070
     0
1002
}
1002
{
1000
OTHER
1070
     0
1002
}
1002
{
1000
REACTOR
1002
}
1001
GENIUS_GENOBJ-N-SDF_13
1002
{
1000
OWNER
1000
GEN
1002
}
1001
GENIUS_GENSCREG_15
1040
1.0
1040
1.0
1011
0.0
1021
0.0
1031
0.0
1011
420.0000000000001
1021
297.0
1031
0.0
1070
     3
  0
POINT
  5
20DB
330
20CF
100
AcDbEntity
 67
     1
  8
0
 60
     1
100
AcDbPoint
 10
0.0
 20
0.0
 30
0.0
1001
GENIUS_GENOENT_13
1002
{
1000
MYREF
1005
20DB
1002
}
1002
{
1000
GRP
1005
0
1002
}
1001
GENIUS_GENOBJ-N-TIT_13
1002
{
1000
OWNER
1000
GEN
1002
}
1001
GENIUS_GENOLIS_13
1002
{
1000
ENT
1005
20D2
1005
20D1
1005
13FE
1002
}
1001
GENIUS_GENTITLE_13
1002
{
1000
BORDER
1000
DIN-A3
1002
}
1002
{
1000
TITLE
1000
Wb_kopf_k
1002
}
1002
{
1000
SCALE
1000
1:1
1002
}
1002
{
1000
TITLESTD
1000
DIN
1002
}
1002
{
1000
HRA
1005
20D1
1002
}
1002
{
1000
HTIT
1005
20D2
1002
}
1002
{
1000
GENIUSID
1005
20DB
1002
}
1002
{
1000
UNCHG
1002
{
1000
GEN-TITLE-SIZ
1000
GEN-TITLE-SCA
1002
}
1002
}
1001
GENIUS_GENODEF_13
1002
{
1000
HIER
1070
     1
1002
}
1002
{
1000
MANEDIT
1070
     1
1002
}
1002
{
1000
NOSEL
1070
     0
1002
}
1002
{
1000
BEHIND
1070
     0
1002
}
1002
{
1000
OTHER
1070
     0
1002
}
1002
{
1000
REACTOR
1002
}
  0
VIEWPORT
  5
2E7E
102
{ACAD_XDICTIONARY
360
7DA8
102
}
330
20CF
100
AcDbEntity
 67
     1
  8
AM_VIEWS
100
AcDbViewport
 10
207.5935850345547
 20
157.0094985864214
 30
0.0
 40
346.0853889198588
 41
230.4156607681068
 68
     2
 69
     2
 12
0.0
 22
0.0
 13
0.0
 23
0.0
 14
2.5
 24
2.5
 15
10.0
 25
10.0
 16
0.0
 26
0.0
 36
1.0
 17
346.5548109627678
 27
280.3898022619775
 37
0.0
 42
50.0
 43
0.0
 44
0.0
 45
460.8313215362136
 50
0.0
 51
0.0
 72
   100
 90
    32880
  1

281
     0
 71
     1
 74
     0
110
0.0
120
0.0
130
0.0
111
1.0
121
0.0
131
0.0
112
0.0
122
1.0
132
0.0
 79
     0
146
0.0
1001
GENIUS_GENOBJ-N-SDF_13
1002
{
1000
OWNER
1000
GEN
1002
}
1001
GENIUS_GENODEF_13
1002
{
1000
HIER
1070
     0
1002
}
1002
{
1000
MANEDIT
1070
     0
1002
}
1002
{
1000
NOSEL
1070
     0
1002
}
1002
{
1000
BEHIND
1070
     0
1002
}
1002
{
1000
OTHER
1070
     0
1002
}
1002
{
1000
REACTOR
1002
}
1001
GENIUS_GENSCREG_15
1000
PF
1040
2.0
1000
DF
1040
1.0
1000
MIN
1011
34.55089057462533
1021
41.80166820236798
1031
0.0
1000
MAX
1011
380.6362794944842
1021
272.2173289704748
1031
0.0
1000
FLAGS
1070
     2
1000
SDF
1005
1403
  0
INSERT
  5
5A25
330
20CF
100
AcDbEntity
 67
     1
  8
AM_6
100
AcDbBlockReference
 66
     1
  2
WB_KOPF_K
 10
409.9999999999999
 20
10.0
 30
0.0
  0
ATTRIB
  5
5A26
330
5A25
100
AcDbEntity
 67
     1
  8
RAHM2
100
AcDbText
 10
408.9999999999999
 20
12.02150323148919
 30
0.0
 40
3.047999999999999
  1

 41
0.75
 72
     2
 11
408.9999999999999
 21
12.02150323148919
 31
0.0
100
AcDbAttribute
  2
ERSATZ_DURCH
 70
     0
  0
ATTRIB
  5
5A27
330
5A25
100
AcDbEntity
 67
     1
  8
RAHM2
100
AcDbText
 10
367.7800000000003
 20
12.02150323148919
 30
0.0
 40
3.047999999999999
  1

 41
0.75
 72
     2
 11
367.7800000000003
 21
12.02150323148919
 31
0.0
100
AcDbAttribute
  2
ERSATZ
 70
     0
  0
ATTRIB
  5
5A28
330
5A25
100
AcDbEntity
 67
     1
  8
RAHM2
100
AcDbText
 10
326.56
 20
12.02150323148919
 30
0.0
 40
3.047999999999999
  1

 41
0.75
 72
     2
 11
326.56
 21
12.02150323148919
 31
0.0
100
AcDbAttribute
  2
URSPRUNG
 70
     0
  0
ATTRIB
  5
5A29
330
5A25
100
AcDbEntity
 67
     1
  8
AM_BOR
 62
     1
370
    25
100
AcDbText
 10
272.7080575966469
 20
11.0
 30
0.0
 40
3.047999999999999
  1

 41
0.75
 72
     1
 11
272.7080575966469
 21
11.0
 31
0.0
100
AcDbAttribute
  2
GEN-TITLE-DWG{8.92}
 70
     0
  0
ATTRIB
  5
5A2A
330
5A25
100
AcDbEntity
 67
     1
  8
AM_BOR
 62
     1
370
    25
100
AcDbText
 10
240.5600000000001
 20
11.0
 30
0.0
 40
3.047999999999999
  1

 41
0.75
 72
     1
 11
240.5600000000001
 21
11.0
 31
0.0
100
AcDbAttribute
  2
GEN-TITLE-SIZ{2.46}
 70
     0
  0
ATTRIB
  5
5A2B
330
5A25
100
AcDbEntity
 67
     1
  8
AM_BOR
100
AcDbText
 10
393.1165969515305
 20
17.35775902156095
 30
0.0
 40
6.349999999999999
  1
-
 41
0.75
100
AcDbAttribute
  2
REVISION
 70
     0
  0
ATTRIB
  5
5A2C
330
5A25
100
AcDbEntity
 67
     1
  8
AM_BOR
100
AcDbText
 10
293.2082076876984
 20
21.09638664867274
 30
0.0
 40
7.0
  1
FKTT-Damm-2gl-180mm
 41
0.75
100
AcDbAttribute
  2
GEN-TITLE-NR
 70
     0
  0
SEQEND
  5
5A2D
330
5A25
100
AcDbEntity
 67
     1
  8
AM_6
  0
TEXT
  5
7C68
330
20CF
100
AcDbEntity
 67
     1
  8
0
100
AcDbText
 10
191.854832501238
 20
22.29189779562844
 30
0.0
 40
5.0
  1
RBS 01/09
100
AcDbText
  0
ENDSEC
  0
SECTION
  2
OBJECTS
  0
DICTIONARY
  5
C
330
0
100
AcDbDictionary
281
     1
  3
ACAD_COLOR
350
668E
  3
ACAD_GROUP
350
D
  3
ACAD_LAYOUT
350
1A
  3
ACAD_MATERIAL
350
668D
  3
ACAD_MLINESTYLE
350
17
  3
ACAD_PLOTSETTINGS
350
19
  3
ACAD_PLOTSTYLENAME
350
E
  3
ACAD_TABLESTYLE
350
668F
  3
ACDBHEADERROUNDTRIPXREC
350
7DA2
  3
AcDbVariableDictionary
350
33A
  3
AcmDictionary
350
45
  3
AMG
350
41
  3
AMGSNAPSETTINGS
350
85
  3
DWGPROPS
350
7DA1
  0
DICTIONARY
  5
6886
330
2
100
AcDbDictionary
280
     1
281
     1
  3
ACAD_LAYERSTATES
360
6887
  3
AMLAYER_GROUPCOLORS
360
6AC6
  0
DICTIONARY
  5
332
330
1F
100
AcDbDictionary
280
     1
281
     1
  3
ACAD_SORTENTS
360
6A2A
  0
DICTIONARY
  5
7975
330
7968
100
AcDbDictionary
280
     1
281
     1
  3
ACAD_DIMASSOC
360
7976
  0
DICTIONARY
  5
799B
330
798E
100
AcDbDictionary
280
     1
281
     1
  3
ACAD_DIMASSOC
360
799C
  0
DICTIONARY
  5
7DA5
330
20D0
100
AcDbDictionary
280
     1
281
     1
  3
ACAD_XREC_ROUNDTRIP
360
7DA6
  0
DICTIONARY
  5
7DA8
330
2E7E
100
AcDbDictionary
280
     1
281
     1
  3
ACAD_XREC_ROUNDTRIP
360
7DA9
  0
DICTIONARY
  5
668E
102
{ACAD_REACTORS
330
C
102
}
330
C
100
AcDbDictionary
281
     1
  0
DICTIONARY
  5
D
102
{ACAD_REACTORS
330
C
102
}
330
C
100
AcDbDictionary
281
     1
  0
DICTIONARY
  5
1A
102
{ACAD_REACTORS
330
C
102
}
330
C
100
AcDbDictionary
281
     1
  3
FKTT-Damm-2gl-180mm
350
20DF
  3
Model
350
22
  0
DICTIONARY
  5
668D
102
{ACAD_REACTORS
330
C
102
}
330
C
100
AcDbDictionary
281
     1
  0
DICTIONARY
  5
17
102
{ACAD_REACTORS
330
C
102
}
330
C
100
AcDbDictionary
281
     1
  3
Standard
350
18
  0
DICTIONARY
  5
19
102
{ACAD_REACTORS
330
C
102
}
330
C
100
AcDbDictionary
281
     1
  0
ACDBDICTIONARYWDFLT
  5
E
102
{ACAD_REACTORS
330
C
102
}
330
C
100
AcDbDictionary
281
     1
  3
Normal
350
F
100
AcDbDictionaryWithDefault
340
F
  0
DICTIONARY
  5
668F
102
{ACAD_REACTORS
330
C
102
}
330
C
100
AcDbDictionary
281
     1
  3
Standard
350
6690
  0
DICTIONARY
  5
7DA2
102
{ACAD_REACTORS
330
C
102
}
330
C
100
AcDbDictionary
281
     1
  0
DICTIONARY
  5
33A
102
{ACAD_REACTORS
330
C
102
}
330
C
100
AcDbDictionary
281
     1
  3
CTABLESTYLE
350
67B3
  3
DIMASSOC
350
33E
  3
HIDETEXT
350
33D
  3
INDEXCTL
350
33C
  3
PROJECTNAME
350
67B4
  3
SORTENTS
350
33B
  0
DICTIONARY
  5
45
102
{ACAD_REACTORS
330
C
102
}
330
C
100
AcDbDictionary
281
     1
  3
AcmStdDictionary
350
4A
  3
AMDTSECTSYM_ARROWCOLOR
350
66F6
  0
DICTIONARY
  5
41
102
{ACAD_REACTORS
330
C
102
}
330
C
100
AcDbDictionary
281
     1
  3
AcMgSettings
350
7D28
  0
DICTIONARY
  5
85
102
{ACAD_REACTORS
330
C
102
}
330
C
100
AcDbDictionary
281
     1
  0
XRECORD
  5
7DA1
102
{ACAD_REACTORS
330
C
102
}
330
C
100
AcDbXrecord
280
     1
  1
DWGPROPS COOKIE
  2

  3

  4

  6

  7

  8

  9

300
AmdtFileType=84
301
=
302
=
303
=
304
=
305
=
306
=
307
=
308
=
309
=
 40
1.092690034722222
 41
2453798.966575521
 42
2454844.731436447
  1

 90
        1
  0
DICTIONARY
  5
6887
102
{ACAD_REACTORS
330
6886
102
}
330
6886
100
AcDbDictionary
281
     1
  0
DICTIONARY
  5
6AC6
102
{ACAD_REACTORS
330
6886
102
}
330
6886
100
AcDbDictionary
280
     1
281
     1
  0
SORTENTSTABLE
  5
6A2A
102
{ACAD_REACTORS
330
332
102
}
330
332
100
AcDbSortentsTable
330
1F
331
232A
  5
232A
331
7884
  5
7884
331
232F
  5
232F
331
7352
  5
7352
331
737C
  5
737C
331
6EFE
  5
6EFE
331
705D
  5
705D
331
2339
  5
2339
331
4ED
  5
4ED
331
232E
  5
232E
331
4CF9
  5
4CF9
331
708C
  5
708C
331
3B13
  5
3B13
331
232D
  5
232D
331
2332
  5
2332
331
233C
  5
233C
331
6F7
  5
6F7
331
77B3
  5
77B3
331
232B
  5
232B
331
2330
  5
2330
331
233B
  5
233B
331
1403
  5
1403
  0
DIMASSOC
  5
7976
102
{ACAD_REACTORS
330
7975
102
}
330
7975
100
AcDbDimAssoc
330
7968
 90
        2
 70
     0
 71
     0
  1
AcDbOsnapPointRef
 72
     1
331
7884
331
791C
 73
     2
 91
        2
 40
0.0
 10
0.0
 20
0.0
 30
2.000000000000000E+50
 75
     0
  0
DIMASSOC
  5
799C
102
{ACAD_REACTORS
330
799B
102
}
330
799B
100
AcDbDimAssoc
330
798E
 90
        3
 70
     0
 71
     0
  1
AcDbOsnapPointRef
 72
     1
331
7884
331
791C
 73
     2
 91
        5
 40
0.0
 10
0.0
 20
0.0
 30
2.000000000000000E+50
 75
     0
  1
AcDbOsnapPointRef
 72
     1
331
7884
331
791C
 73
     2
 91
        4
 40
0.0
 10
0.0
 20
0.0
 30
2.000000000000000E+50
 75
     0
  0
XRECORD
  5
7DA6
102
{ACAD_REACTORS
330
7DA5
102
}
330
7DA5
100
AcDbXrecord
280
     1
102
SHADEPLOT
 70
     0
  0
XRECORD
  5
7DA9
102
{ACAD_REACTORS
330
7DA8
102
}
330
7DA8
100
AcDbXrecord
280
     1
102
SHADEPLOT
 70
     0
  0
LAYOUT
  5
20DF
102
{ACAD_XDICTIONARY
360
68CA
102
}
102
{ACAD_REACTORS
330
1A
102
}
330
1A
100
AcDbPlotSettings
  1

  2
PS2TIFF.pc3
  4
UserDefinedMetric (420.00 x 297.00MM)
  6
AM_VIEW1
 40
0.0
 41
0.0
 42
0.0
 43
0.0
 44
420.0
 45
297.0
 46
0.0
 47
0.0
 48
0.0
 49
0.0
140
420.0
141
297.0
142
1.0
143
1.0
 70
   164
 72
     1
 73
     0
 74
     4
  7
PoPa-0.ctb
 75
     0
147
0.6767676767676769
148
0.0
149
0.0
100
AcDbLayout
  1
FKTT-Damm-2gl-180mm
 70
     1
 71
     1
 10
0.0
 20
0.0
 11
420.0
 21
297.0
 12
0.0
 22
0.0
 32
0.0
 14
-0.0064041928748111
 24
-0.004528679247187
 34
-0.0000000000112498
 15
420.0064100605656
 25
297.0045328285427
 35
0.0000000000002956
146
0.0
 13
0.0
 23
0.0
 33
0.0
 16
1.0
 26
0.0
 36
0.0
 17
0.0
 27
1.0
 37
0.0
 76
     0
330
20CF
331
20D0
1001
ACAD_PSEXT
1000
PS2TIFF.pc3
1000
PostScript-Level 1
1000
AutoSpool
1000
TIFF via PostScript
1070
     0
  0
LAYOUT
  5
22
102
{ACAD_XDICTIONARY
360
7DA3
102
}
102
{ACAD_REACTORS
330
1A
102
}
330
1A
100
AcDbPlotSettings
  1

  2
PS2PDF.pc3
  4
UserDefinedMetric (420.00 x 297.00MM)
  6

 40
0.0
 41
0.0
 42
0.0
 43
0.0
 44
420.0
 45
297.0
 46
5.528292653219523
 47
100.8854494786622
 48
3913.687913903809
 49
2558.303864167426
140
8003.122060839418
141
3510.594874594181
142
1.0
143
10.0
 70
 11428
 72
     1
 73
     0
 74
     4
  7
PoPa-0.ctb
 75
     0
147
1.0
148
-3913.687913903809
149
-2558.303864167426
100
AcDbLayout
  1
Model
 70
     1
 71
     0
 10
0.0
 20
0.0
 11
12.0
 21
9.0
 12
0.0
 22
0.0
 32
0.0
 14
0.0
 24
0.0
 34
0.0
 15
0.0
 25
0.0
 35
0.0
146
0.0
 13
0.0
 23
0.0
 33
0.0
 16
1.0
 26
0.0
 36
0.0
 17
0.0
 27
1.0
 37
0.0
 76
     0
330
1F
1001
ACAD_PSEXT
1000
Laserdrucker.pc3
1000
PostScript-Level 1
1000
AutoSpool
1000
Laserdrucker PostScript
1070
     0
  0
MLINESTYLE
  5
18
102
{ACAD_REACTORS
330
17
102
}
330
17
100
AcDbMlineStyle
  2
STANDARD
 70
     0
  3

 62
   256
 51
90.0
 52
90.0
 71
     2
 49
0.5
 62
   256
  6
BYLAYER
 49
-0.5
 62
   256
  6
BYLAYER
  0
ACDBPLACEHOLDER
  5
F
102
{ACAD_REACTORS
330
E
102
}
330
E
  0
TABLESTYLE
  5
6690
102
{ACAD_REACTORS
330
668F
102
}
330
668F
100
AcDbTableStyle
  3
Standard
 70
     0
 71
     0
 40
1.5
 41
1.5
280
     0
281
     0
  7
STANDARD
140
4.5
170
     2
 62
     0
 63
     7
283
     0
274
    -2
284
     1
 64
     0
275
    -2
285
     1
 65
     0
276
    -2
286
     1
 66
     0
277
    -2
287
     1
 67
     0
278
    -2
288
     1
 68
     0
279
    -2
289
     1
 69
     0
  7
STANDARD
140
6.0
170
     5
 62
     0
 63
     7
283
     0
274
    -2
284
     1
 64
     0
275
    -2
285
     1
 65
     0
276
    -2
286
     1
 66
     0
277
    -2
287
     1
 67
     0
278
    -2
288
     1
 68
     0
279
    -2
289
     1
 69
     0
  7
STANDARD
140
4.5
170
     5
 62
     0
 63
     7
283
     0
274
    -2
284
     1
 64
     0
275
    -2
285
     1
 65
     0
276
    -2
286
     1
 66
     0
277
    -2
287
     1
 67
     0
278
    -2
288
     1
 68
     0
279
    -2
289
     1
 69
     0
  0
DICTIONARYVAR
  5
67B3
102
{ACAD_REACTORS
330
33A
102
}
330
33A
100
DictionaryVariables
280
     0
  1
STANDARD
  0
DICTIONARYVAR
  5
33E
102
{ACAD_REACTORS
330
33A
102
}
330
33A
100
DictionaryVariables
280
     0
  1
2
  0
DICTIONARYVAR
  5
33D
102
{ACAD_REACTORS
330
33A
102
}
330
33A
100
DictionaryVariables
280
     0
  1
1
  0
DICTIONARYVAR
  5
33C
102
{ACAD_REACTORS
330
33A
102
}
330
33A
100
DictionaryVariables
280
     0
  1
0
  0
DICTIONARYVAR
  5
67B4
102
{ACAD_REACTORS
330
33A
102
}
330
33A
100
DictionaryVariables
280
     0
  1

  0
DICTIONARYVAR
  5
33B
102
{ACAD_REACTORS
330
33A
102
}
330
33A
100
DictionaryVariables
280
     0
  1
33
  0
DICTIONARY
  5
4A
102
{ACAD_REACTORS
330
45
102
}
330
45
100
AcDbDictionary
281
     1
  0
XRECORD
  5
66F6
102
{ACAD_REACTORS
330
45
102
}
330
45
100
AcDbXrecord
280
     1
 90
-1023410169
  0
DICTIONARY
  5
7D28
102
{ACAD_REACTORS
330
41
102
}
330
41
100
AcDbDictionary
281
     1
  3
DWGSETTINGS
350
7D29
  3
TRANSSETTINGS
350
7D2A
  0
DICTIONARY
  5
68CA
330
20DF
100
AcDbDictionary
280
     1
281
     1
  3
ACAD_XREC_ROUNDTRIP
360
7DA7
  3
ADSK_XREC_LAYOUTTHUMBNAIL
360
68CB
  0
DICTIONARY
  5
7DA3
330
22
100
AcDbDictionary
280
     1
281
     1
  3
ACAD_XREC_ROUNDTRIP
360
7DA4
  0
XRECORD
  5
7DA7
102
{ACAD_REACTORS
330
68CA
102
}
330
68CA
100
AcDbXrecord
280
     1
102
SHADEPLOT
 70
     1
102
SHADEPLOTRESLEVEL
 70
     2
102
SHADEPLOTCUSTOMDPI
 70
   300
  0
XRECORD
  5
68CB
102
{ACAD_REACTORS
330
68CA
102
}
330
68CA
100
AcDbXrecord
280
     1
310
28000000B40000007F00000001000800000000004C590000000000000000000000010000000000000000000000000000FFFFFF000000000000000000000000000000000000000000000000000000000000000000330000006600000099000000CC000000FF00000000330000333300006633000099330000CC330000FF3300
310
0000660000336600006666000099660000CC660000FF66000000990000339900006699000099990000CC990000FF99000000CC000033CC000066CC000099CC0000CCCC0000FFCC000000FF000033FF000066FF000099FF0000CCFF0000FFFF000000003300330033006600330099003300CC003300FF003300003333003333
310
33006633330099333300CC333300FF33330000663300336633006666330099663300CC663300FF66330000993300339933006699330099993300CC993300FF99330000CC330033CC330066CC330099CC3300CCCC3300FFCC330000FF330033FF330066FF330099FF3300CCFF3300FFFF330000006600330066006600660099
310
006600CC006600FF00660000336600333366006633660099336600CC336600FF33660000666600336666006666660099666600CC666600FF66660000996600339966006699660099996600CC996600FF99660000CC660033CC660066CC660099CC6600CCCC6600FFCC660000FF660033FF660066FF660099FF6600CCFF6600
310
FFFF660000009900330099006600990099009900CC009900FF00990000339900333399006633990099339900CC339900FF33990000669900336699006666990099669900CC669900FF66990000999900339999006699990099999900CC999900FF99990000CC990033CC990066CC990099CC9900CCCC9900FFCC990000FF99
310
0033FF990066FF990099FF9900CCFF9900FFFF99000000CC003300CC006600CC009900CC00CC00CC00FF00CC000033CC003333CC006633CC009933CC00CC33CC00FF33CC000066CC003366CC006666CC009966CC00CC66CC00FF66CC000099CC003399CC006699CC009999CC00CC99CC00FF99CC0000CCCC0033CCCC0066CC
310
CC0099CCCC00CCCCCC00FFCCCC0000FFCC0033FFCC0066FFCC0099FFCC00CCFFCC00FFFFCC000000FF003300FF006600FF009900FF00CC00FF00FF00FF000033FF003333FF006633FF009933FF00CC33FF00FF33FF000066FF003366FF006666FF009966FF00CC66FF00FF66FF000099FF003399FF006699FF009999FF00CC
310
99FF00FF99FF0000CCFF0033CCFF0066CCFF0099CCFF00CCCCFF00FFCCFF0000FFFF0033FFFF0066FFFF0099FFFF00CCFFFF00FFFFFF00000000000D0D0D001A1A1A00282828003535350043434300505050005D5D5D006B6B6B00787878008686860093939300A1A1A100AEAEAE00BBBBBB00C9C9C900D6D6D600E4E4E400
310
F1F1F100FFFFFF0000000000000000000000000000000000000000000000000000000000000000000000000000000000BEBEBEBEBEBEBEBEBEBEBEBEBEBEBEBEBEBEBEBEBEBEBEBEBEBEBEBEBEBEBEBEBEBEBEBEBEBEBEBEBEBEBEBEBEBEBEBEBEBEBEBEBEBEBEBEBEBEBEBEBEBEBEBEBEBEBEBEBEBEBEBEBEBEBEBEBEBEBE
310
BEBEBEBEBEBEBEBEBEBEBEBEBEBEBEBEBEBEBEBEBEBEBEBEBEBEBEBEBEBEBEBEBEBEBEBEBEBEBEBEBEBEBEBEBEBEBEBEBEBEBEBEBEBEBEBEBEBEBEBEBEBEBEBEBEBEBEBEBEBEBEBEBEBEBEBEBEBEBEBEBEBEBEBEBEBEBEBEBEBEBEBEBEBEBEBEBEBEBEF5EFBEE2E2E2E2E2E2E2E2E2E2E2E2E2E2E2E2E2E2E2E2E2E2E2E2E2
310
E2E2E2E2E2E2E2E2E2E2E2E2E2E2E2E2E2E2E2E2E2E2E2E2E2E2E2BEE2E2E2E2E2E2E2E2E2E2E2E2E2E2E2E2E2E2E2E2E2E2E2E2E2E2E2E2E2E2E2E2E2E2E2E2E2E2E2E2E2E2E2BEE2E2E2E2E2E2E2E2E2E2E2E2E2E2E2E2E2E2E2E2E2E2E2E2E2E2E2E2E2E2E2E2E2E2E2E2E2E2E2E2E2E2E2E2E2E2E2E2E2E2E2E2E2E2E2
310
E2E2E2E2E2E2E2E2E2E2E2E2E2E2E2E2E2E2E2E2E2E2E2E2BEF5EFBEE2F5F5F5F5F5F5F5F5F5F5F5F5F5F5F5F5F5F5F5F5F5F5F5F5F5F5F5F5F5F5F5F5F5F5F5F5F5F5F5F5F5F5F5F5F5F5F5F5F5F5F5BEF5F5F5F5F5F5F5F5F5F5F5F5F5F5F5F5F5F5F5F5F5F5F5F5F5F5F5F5F5F5F5F5F5F5F5DCF5F5F5F5F5F5F5F5F5F5
310
F5F5F5F5F5F5F5F5F5F5BEF5F5F5F5F5F5F5F5F5F5F5F5F5F5F5F5F5F5F5F5BEF5F5F5F5F5F5F5F5F5F5F5F5F5F5F5F5F5F5F5F5BEF5F5F5F5F5F5F5F5F5F5F5F5F5F5F5F5F5F5F5F5F5F5F5E2BEF5EFBEE2F5E2E2E2E2E2E2E2E2E2E2E2BEE2E2E2E2E2E2E2E2E2E2BEE2E2E2E2E2E2E2E2E2BEBEE2E2E2E2E2E2E2E2E2BE
310
E2E2E2E2E2E2E2E2E2BEBEE2E2E2E2E2E2E2E2E2BEE2E2E2E2E2E2E2E2E2E2BEE2E2E2E2E2E2E2E2E2E2DCE2E2E2E2E2E2E2E2E2BEE2E2E2E2E2E2E2E2E2E2BEE2E2E2E2E2E2E2E2E2BEBEE2E2E2E2E2E2E2E2E2BEE2E2E2E2E2E2E2E2E2E2BEE2E2E2E2E2E2E2E2E2BEE2E2E2E2E2E2E2E2E2BEBEE2E2E2E2E2E2E2E2E2E2
310
E2F5E2BEF5EFBEE2F5E2BEBEBEBEBEBEBEBEBEBEBEBEBEBEBEBEBEBEBEBEBEBEBEBEBEBEBEBEBEBEBEBEBEBEBEBEBEBEBEBEBEBEBEBEBEBEBEBEBEBEBEBEBEBEBEBEBEBEBEBEBEBEBEBEBEBEBEBEBEBEBEBEBEBEBEBEBEBEBEBEBEBEBEBEBEDCBEBEBEBEBEBEDCDCDCDCDCDCDCDCDCDCDCDCDCDCDCDCDCDCDCDCDCDCDCDCDC
310
DCDCDCDCDCDCDCDCDCDCDCDCDCDCDCDCDCDCDCDCDCDCDCDCDCDCDCDCDCDCDCDCDCDCDCDCDCDCDCDCDCDCDCDCDCDCDCDCDCDCDCDCDCE2F5E2BEF5EFBEE2F5E2BEE2E2E2E2E2E2E2E2E2E2E2E2E2E2E2E2E2E2E2E2E2E2E2E2E2E2E2E2E2E2E2E2E2E2E2E2E2E2E2E2E2E2E2E2E2E2E2E2E2E2E2E2E2E2E2E2E2E2E2E2E2E2E2
310
E2E2E2E2E2E2E2E2E2E2E2E2E2E2E2E2E2E2E2E2E2E2E2E2E2E2E2E2BEBEBEBEE2E2E2BEBEBEBEBEE2E2E2E2E2E2E2E2E2E2E2E2E2BEBEBEBEE2E2E2E2E2E2E2E2E2E2E2E2E2BEBEBEBEBEBEBEBEBEE2E2E2E2E2E2E2E2E2BEBEBEBEBEBEBEBEE2E2E2E2E2E2E2E2E2BEE2F5E2BEF5EFBEE2F5E2BEE2E2E2E2E2E2E2E2E2E2
310
E2E2E2E2E2E2E2E2E2E2E2E2E2E2E2E2E2E2E2E2E2E2E2E2E2E2E2E2E2E2E2E2E2E2E2E2E2E2E2E2E2E2E2E2E2E2E2E2E2E2E2E2E2E2E2E2E2E2E2E2E2E2E2E2E2E2E2E2E2E2E2E2E2E2E2E2E2E2E2E2E2BEBEBEBEE2E2E2BEBEBEBEBEE2E2E2E2E2E2E2E2E2E2E2E2E2BEBEBEBEBEE2E2E2E2E2E2E2E2E2E2E2E2BEBEBEBE
310
BEBEE2BEE2E2E2E2E2E2E2E2E2E2BEBEBEBEBEBEBEBEE2E2E2E2E2E2E2E2E2BEE2F5E2BEF5EFBEE2F5E2BEE2E2E2E2E2E2E2E2E2E2E2E2E2E2E2E2E2E2E2E2E2E2E2E2E2E2E2E2E2E2E2E2E2E2E2E2E2E2E2E2E2E2E2E2E2E2E2E2E2E2E2E2E2E2E2E2E2E2E2E2E2E2E2E2E2E2E2E2E2E2E2E2E2E2E2E2E2E2E2E2E2E2E2E2
310
E2E2E2E2E2E2E2DCDCDCDCDCDCDCDCDCDCDCDCDCDCDCDCDCDCDCDCDCDCDCDCDCDCDCDCDCDCDCDCDCDCDCDCDCDCDCDCDCDCDCDCDCDCDCDCDCDCDCDCDCDCDCDCDCDCDCDCDCDCDCDCDCDCDCDCDCDCDCDCDCDCDCDCDCDCE2F5E2BEF5EFBEE2F5E2BEE2E2E2E2E2E2E2E2E2E2E2E2E2E2E2E2E2E2E2E2E2E2E2E2E2E2E2E2E2E2E2
310
E2E2E2E2E2E2E2E2E2E2E2E2E2E2E2E2E2E2E2E2E2E2E2E2E2E2E2E2E2E2E2E2E2E2E2E2E2E2E2E2E2E2E2E2E2E2E2E2E2E2E2E2E2E2E2E2E2E2E2E2DCE2E2F5F5F5F5F5F5F5F5F5F5F5F5F5F5F5F5F5F5F5F5F5E2E2E2BEE2E2E2F5E2E2F5E2E2E2E2E2E2E2E2E2E2E2F5E2E2E2E2E2E2F5E2E2E2E2E2E2E2E2E2E2E2E2E2
310
E2E2E2F5F5E2E2E2E2E2BEE2F5E2BEF5EFBEE2F5E2BEE2E2E2E2E2E2E2E2E2E2E2E2E2E2E2E2E2E2E2E2E2E2E2E2E2E2E2E2E2E2E2E2E2E2E2E2E2E2E2E2E2E2E2E2E2E2E2E2E2E2E2E2E2E2E2E2E2E2E2E2E2E2E2E2E2E2E2E2E2E2E2E2E2E2E2E2E2E2E2E2E2E2E2E2E2E2E2E2E2E2E2DCE2E2F5F5F5F5F5F5F5F5F5F5F5
310
F5F5F5F5F5F5F5F5F5F5E2E2E2BEF5F5F5F5F5F5F5F5F5F5F5F5F5F5E2F5E2E2F5F5F5F5F5F5F5F5E2F5F5F5F5F5F5F5F5E2E2E2E2E2E2E2BEE2E2E2E2E2E2BEE2F5E2BEF5EFBEE2F5E2BEE2E2E2E2E2E2E2E2E2E2E2E2E2E2E2E2E2E2E2E2E2E2E2E2E2E2E2E2E2E2E2E2E2E2E2E2E2E2E2E2E2E2E2E2E2E2E2E2E2E2E2E2
310
E2E2E2E2E2E2E2E2E2E2E2E2E2E2E2E2E2E2E2E2E2E2E2E2E2E2E2E2E2E2E2E2E2E2E2E2E2E2E2DCE2E2F5F5F5F5F5F5F5F5F5F5F5F5F5F5F5F5F5F5F5F5F5E2E2E2BEF5F5F5F5F5F5F5F5F5F5F5F5F5F5E2F5F5F5F5F5F5F5F5F5F5F5E2F5F5F5F5F5F5F5F5E2E2E2E2E2E2E2BEE2E2E2E2E2E2BEE2F5E2BEF5EFBEE2F5E2
310
BEE2E2E2E2E2E2E2E2E2E2E2E2E2E2E2E2E2E2E2E2E2E2E2E2E2E2E2E2E2E2E2E2E2E2E2E2E2E2E2E2E2E2E2E2E2E2E2E2E2E2E2E2E2E2E2E2E2E2E2E2E2E2E2E2E2E2E2E2E2E2E2E2E2E2E2E2E2E2E2E2E2E2E2E2E2E2E2E2E2E2E2DCE2E2F5F5F5F5F5F5F5F5F5F5F5F5F5F5F5F5F5F5F5F5F5E2E2E2BEF5F5F5F5F5F5F5
310
F5F5F5F5F5F5F5E2F5E2E2F5F5F5F5F5F5F5F5E2F5F5F5F5F5F5F5F5E2E2E2E2E2E2E2BEE2E2E2E2E2E2BEE2F5E2BEF5EFBEE2F5E2BEE2E2E2E2E2E2E2E2E2E2E2E2E2E2E2E2E2E2E2E2E2E2E2E2E2E2E2E2E2E2E2E2E2E2E2E2E2E2E2E2E2E2E2E2E2E2E2E2E2E2E2E2E2E2E2E2E2E2E2E2E2E2E2E2E2E2E2E2E2E2E2E2E2
310
E2E2E2E2E2E2E2E2E2E2E2E2E2E2E2E2E2E2DCE2E2F5F5F5F5F5F5F5F5F5F5F5F5F5F5F5F5F5F5F5F5F5E2E2E2BEF5F5E2E2E2F5F5E2E2E2E2F5F5F5E2F5E2E2E2F5E2E2F5E2F5E2E2F5F5E2E2E2E2E2E2E2E2E2E2E2E2E2BEE2E2E2E2E2E2BEE2F5E2BEF5EFBEE2F5E2BEE2E2E2E2E2E2E2E2E2E2E2E2E2E2E2E2E2E2E2E2
310
E2E2E2E2E2E2E2E2E2E2E2E2E2E2E2E2E2E2E2E2E2E2E2E2E2E2E2E2E2E2E2E2E2E2E2E2E2E2E2E2E2E2E2E2E2E2E2E2E2E2E2E2E2E2E2E2E2E2E2E2E2E2E2E2E2E2E2E2E2E2E2DCE2E2E2E2E2E2E2E2E2E2E2E2E2E2E2E2E2E2E2E2E2E2E2E2E2E2BEE2E2E2E2E2E2E2E2E2E2E2E2E2E2E2E2E2E2E2E2E2E2E2E2E2E2E2E2
310
E2E2E2E2E2E2E2E2E2E2E2E2E2E2BEBEBEE2E2E2E2BEBEF5E2BEF5EFBEE2F5BEBEE2E2E2E2E2E2E2E2E2E2E2E2E2E2E2E2E2E2E2E2E2E2E2E2E2E2E2E2E2E2E2E2E2E2E2E2E2E2E2E2E2E2E2E2E2E2E2E2E2E2E2E2E2E2E2E2E2E2E2E2E2E2E2E2E2E2E2E2E2E2E2E2E2E2E2E2E2E2E2E2E2E2E2E2E2E2E2E2E2E2E2DCDCDC
310
DCDCDCDCDCDCDCDCDCDCDCDCDCDCDCDCDCDCDCDCDCDCDCDCDCDCDCDCDCDCDCDCDCDCDCDCDCDCDCDCDCDCDCDCDCDCDCDCDCDCDCDCDCDCDCDCDCDCDCDCDCDCDCDCDCDCDCDCDCDCDCDCDCDCDCBEF5E2BEF5EFBEE2F5BEBEE2E2E2E2E2E2E2E2E2E2E2E2E2E2E2E2E2E2E2E2E2E2E2E2E2E2E2E2E2E2E2E2E2E2E2E2E2E2E2E2E2
310
E2E2E2E2E2E2E2E2E2E2E2E2E2E2E2E2E2E2E2E2E2E2E2E2E2E2E2E2E2E2E2E2E2E2E2E2E2E2E2E2E2E2E2E2E2E2E2E2E2E2E2E2E2E2E2E2E2E2E2E2E2E2E2E2E2E2E2E2E2E2E2E2E2E2E2E2E2E2E2E2E2E2E2E2E2E2E2E2E2E2E2E2E2E2E2E2E2E2E2E2E2E2E2E2E2E2E2E2E2E2E2E2E2E2E2E2E2E2E2E2E2E2E2E2E2E2E2
310
BEBEF5E2BEF5EFBEE2F5E2BEE2E2E2E2E2E2E2E2E2E2E2E2E2E2E2E2E2E2E2E2E2E2E2E2E2E2E2E2E2E2E2E2E2E2E2E2E2E2E2E2E2E2E2E2E2E2E2E2E2E2E2E2E2E2E2E2E2E2E2E2E2E2E2E2E2E2E2E2E2E2E2E2E2E2E2E2E2E2E2E2E2E2E2E2E2E2E2E2E2E2E2E2E2E2E2E2E2E2E2E2E2E2E2E2E2E2E2E2E2E2E2E2E2E2E2
310
E2E2E2E2E2E2E2E2E2E2E2E2E2E2E2E2E2E2E2E2E2E2E2E2E2E2E2E2E2E2E2E2E2E2E2E2E2E2E2E2E2E2E2E2E2E2E2E2E2E2E2E2E2BEE2F5E2BEF5EFBEE2F5E2BEE2E2E2E2E2E2E2E2E2E2E2E2E2E2E2E2E2E2E2E2E2E2E2E2E2E2E2E2E2E2E2E2E2E2E2E2E2E2E2E2E2E2E2E2E2E2E2E2E2E2E2E2E2E2E2E2E2E2E2E2E2E2
310
E2E2E2E2E2E2E2E2E2E2E2E2E2E2E2E2E2E2E2E2E2E2E2E2E2E2E2E2E2E2E2E2E2E2E2E2E2E2E2E2E2E2E2E2E2E2E2E2E2E2E2E2E2E2E2E2E2E2E2E2E2E2E2E2E2E2E2E2E2E2E2E2E2E2E2E2E2E2E2E2E2E2E2E2E2E2E2E2E2E2E2E2E2E2E2E2E2E2E2E2E2E2E2E2E2E2BEE2F5E2BEF5EFBEE2F5E2BEE2E2E2E2E2E2E2E2E2
310
BEBEBEBEBEBEBEBEBEBEBEBEBEBEBEBEBEBEBEBEBEBEBEBEBEBEBEBEBEBEBEBEBEBEBEBEBEBEBEBEBEBEBEBEBEBEBEBEBEBEBEBEBEBEBEBEBEBEBEBEBEBEBEBEBEBEBEBEBEBEBEBEBEBEBEBEBEBEBEBEBEBEBEBEBEBEBEBEBEBEBEBEBEBEBEBEBEBEBEBEBEBEBEBEBEBEBEBEBEBEBEBEBEBEBEBEBEBEBEBEBEBEBEBEBEBEBE
310
BEBEBEBEBEBEBEBEBEBEBEBEBEBEBEBEBEBEBEBEBEE2E2E2E2E2E2E2E2E2E2E2BEE2F5E2BEF5EFBEE2F5E2BEE2E2E2E2E2E2E2E2E2BEE2E2E2E2E2E2E2E2E2E2E2E2E2E2E2E2E2E2E2E2E2E2E2E2E2E2E2E2E2E2E2E2E2E2E2E2E2E2E2E2E2E2E2E2E2E2E2E2E2E2E2E2E2E2E2E2E2E2E2E2E2E2E2E2E2E2E2E2E2E2E2E2E2
310
E2E2E2E2E2E2E2E2E2E2E2E2E2E2E2E2E2E2E2E2E2E2E2E2E2E2E2E2E2E2E2E2E2E2E2E2E2E2E2E2E2E2E2E2E2E2E2E2E2E2E2E2E2E2E2E2E2E2E2E2E2E2E2E2E2E2E2E2E2E2E2E2E2BEE2E2E2E2E2E2E2E2E2E2E2BEE2F5E2BEF5EFBEE2F5E2BEE2E2E2E2E2E2E2E2E2BEE2E2E2E2E2E2E2E2E2E2E2E2E2E2E2E2E2E2E2E2
310
E2E2E2E2E2E2E2E2E2E2E2E2E2E2E2E2E2E2E2E2E2E2E2E2E2E2E2E2E2E2E2E2E2E2E2E2E2E2E2E2E2E2E2E2E2E2E2E2E2E2E2E2E2E2E2E2E2E2E2E2E2E2E2E2E2E2E2E2E2E2E2E2E2E2E2E2E2E2E2E2E2E2E2E2E2E2E2E2E2E2E2E2E2E2E2E2E2E2E2E2E2E2E2E2E2E2E2E2E2E2E2E2E2E2E2E2E2E2E2E2E2E2E2E2E2E2BE
310
E2E2E2E2E2E2E2E2E2E2E2BEE2F5E2BEF5EFBEE2F5E2BEE2E2E2E2E2E2E2E2E2BEE2E2E2E2E2E2E2E2E2E2E2E2E2E2E2E2E2E2E2E2E2E2E2E2E2E2E2E2E2E2E2E2E2E2E2E2E2E2E2E2E2E2E2E2E2E2E2E2E2E2E2E2E2E2E2E2E2E2E2E2E2E2E2E2E2E2E2E2E2E2E2E2E2E2E2E2E2E2E2E2E2E2E2E2E2E2E2E2E2E2E2E2E2E2
310
E2E2E2E2E2E2E2E2E2E2E2E2E2E2E2E2E2E2E2E2E2E2E2E2E2E2E2E2E2E2E2E2E2E2E2E2E2E2E2E2E2E2E2E2E2E2E2E2E2E2E2E2BEE2E2E2E2E2E2E2E2E2E2E2BEE2F5E2BEF5EFBEE2F5E2BEE2E2E2E2E2E2E2E2E2BEE2E2E2E2E2E2E2E2E2E2E2E2E2E2E2E2E2E2E2E2E2E2E2E2E2E2E2E2E2E2E2E2E2E2E2E2E2E2E2E2E2
310
E2E2E2E2E2E2E2E2E2E2E2E2E2E2E2E2E2E2E2E2E2E2E2E2E2E2E2E2E2E2E2E2E2E2E2E2E2E2E2E2E2E2E2E2E2E2E2E2E2E2E2E2E2E2E2E2E2E2E2E2E2E2E2E2E2E2E2E2E2E2E2E2E2E2E2E2E2E2E2E2E2E2E2E2E2E2E2E2E2E2E2E2E2E2E2E2E2E2E2E2E2E2E2E2E2BEE2E2E2E2E2E2E2E2E2E2E2BEE2F5E2BEF5EFBEE2F5
310
E2BEE2E2E2E2E2E2E2E2E2BEE2E2E2E2E2E2E2E2E2E2E2E2E2E2E2E2E2E2E2E2E2E2E2E2E2E2E2E2282828282828282828282828282828282828282828282828282828282828282828282828282828282828282828282828282828282828282828282828282828282828282828282828282828282828282828282828282828
310
282828282828282828282828282828282828282828E2E2E2E2E2E2E2E2E2E2BEE2E2E2E2E2E2E2E2E2E2E2BEE2F5E2BEF5EFBEE2F5BEBEE2E2E2E2E2E2E2E2E2BEE2E2E2E2E2E2E2E2E2E2E2E2E2E2E2E2E2E2E2E2E2E2E2E2E2E2E2E22828E2E2E2E2E2E2E2E2E2E2E2E2E2E2E2E2E2E2E2E2E2E2E2E2E2E2E2E2E2E2E2E2
310
E2E2E2E2E2E2E2E2E2E2E2E2E2E2E2E2E2E2DCDCDCDCE2E2E2E2E2E2E2E2E2E2E2E2E2E2E2E2E2E2E2E2E2E2E2E2E2E2E2E2E2E2E2E2E2E2E2E2E2E2E2E2E2E2E2E2E2E2E2E2E2E22828E2E2E2E2E2E2E2E2E2E2BEE2E2E2E2E2E2E2E2E2E2E2BEBEF5E2BEF5EFBEE2F5E2BEE2E2E2E2E2E2E2E2E2BEE2E2E2E2E2E2E2E2E2
310
E2E2E2E2E2E2E2E2E2E2E2E2E2E2E2E2E2E2E228E2E2E2E2E2E2E2E2E2E2E2E2E2E2E2E2E2E2E2E2E2E2E2E2E2E2E2E2E2E2E2E2E2E2E2E2E2E2E2E2E2E2E2E2E2E2E2E2E2E2E2DCDCDCDCE2E2E2E2E2E2E2E2E2E2E2E2E2E2E2E2E2E2E2E2E2E2E2E2E2E2E2E2E2E2E2E2E2E2E2E2E2E2E2E2E2E2E2E2E2E2E2E2E2E2E228
310
E2E2E2E2E2E2E2E2E2E2BEE2E2E2E2E2E2E2E2E2E2E2BEE2F5E2BEF5EFBEE2F5E2BEE2E2E2E2E2E2E2E2E2BEE2E2E2E2E2E2E2E2E2E2E2E2E2E2E2E2E2E2E2E2E2E2E2E2E2E2E2E228E2E2E2E2E2E2E2E2E2E2E2E2E2E2E2E2E2E2E2E2E2E2E2E2E2E2E2E2E2E2E2E2E2E2E2E2E2E2E2E2E2E2E2E2E2E2E2E2E2E2E2E2E2E2
310
E2E2E2E2E2E2E2E2E2E2E2E2E2E2E2E2E2E2E2E2E2E2E2E2E2E2E2E2E2E2E2E2E2E2E2E2E2E2E2E2E2E2E2E2E2E2E2E2E2E2E2E228E2E2E2E2E2E2E2E2E2E2BEE2E2E2E2E2E2E2E2E2E2E2BEE2F5E2BEF5EFBEE2F5E2BEE2E2E2E2E2E2E2E2E2BEE2E2E2E2E2E2E2E2E2E2E2E2E2E2E2E2E2E2E2E2E2E2E2E2E2E2E2E228E2
310
E2E2E2E2E2E2E22828E2E2E2E2E2E2E2E2E2E2E2E2E2E2E2E2E2E2E2E2E2E2E2E2E2E2E2E2E2E2E2E2E2E2E2E2E2E2E2E2E22828E2E2E2E2E2E2E2E2E2E2E2E2E2E2E2E2E2E2E2E2E2E2E2E2E2E2E2E2E2E2E2E2E2E2E2E2E2E2E2E2E2E2E2E2E2E2E2E2E2E2E2E2E228E2E2E2E2E2E2E2E2E2E2BEE2E2E2E2E2E2E2E2E2E2
310
E2BEE2F5E2BEF5EFBEE2F5E2BEE2E2E2E2E2E2E2E2E2BEE2E2E2E2E2E2E2E2E2E2E2E2E2E2E2E2E2E2E2E2E2E2E2E2E2E2E2E228E2E2E2E2E2E2E2E2282828282828282828282828282828282828282828DCDCDC282828282828282828282828282828282828282828E2E2E2E2E2E2E2E2E2E2E2E2E2E2E2E2E2E2E2E2E2E2
310
E2E2E2E2E2E2E2E2E2E2E2E2E2E2E2E2E2E2E2E2E2E2E2E2E2E2E2E2E2E2E228E2E2E2E2E2E2E2E2E2E2BEE2E2E2E2E2E2E2E2E2E2E2BEE2F5E2BEF5EFBEE2F5E2BEE2E2E2E2E2E2E2E2E2BEE2E2E2E2E2E2E2E2E2E2E2E2E2E2E2E2E2E2E2E2E2E2E2E2E2E2E2E228E2E2E2E2E2E2E2E228E2E2E2E2E2E2E2E2E2E2E2E2E2
310
E2E2E2E2E2E2E2DCDCDCDCE2E2E2E2E2E2E2E2E2E2E2E2E2E2E2E2E2E2E228E2E2E2E2E2E2E2E2E2E2E2E2E2E2E2E2E2E2E2E2E2E2E2E2E2E2E2E2E2E2E2E2E2E2E2E2E2E2E2E2E2E2E2E2E2E2E2E2E2E2E2E2E228E2E2E2E2E2E2E2E2E2E2BEE2E2E2E2E2E2E2E2E2E2E2BEE2F5E2BEF5EFBEE2F5E2BEE2E2E2E2E2E2E2E2
310
E2BEE2E2E2E2E2E2E2E2E2E2E2E2E2E2E2E2E2E2E2E2E2E2E2E2E2E2E2E228E2E2E2E2E2E2E2E228E2E2E2E2E2E2E2E2E2E2E2E2E2E2E2E2E2E2E2E2DCDCDCDCE2E2E2E2E2E2E2E2E2E2E2E2E2E2E2E2E2E2E228E2E2E2E2E2E2E2E2E2E2E2E2E2E2E2E2E2E2E2E2E2E2E2E2E2E2E2E2E2E2E2E2E2E2E2E2E2E2E2E2E2E2E2
310
E2E2E2E2E2E2E2E2E2E228E2E2E2E2E2E2E2E2E2E2BEE2E2E2E2E2E2E2E2E2E2E2BEE2F5E2BEF5EFBEE2F5E2BEE2E2E2E2E2E2E2E2E2BEE2E2E2E2E2E2E2E2E2E2E2E2E2E2E2E2E2E2E2E2E2E2E2E2E2E2E2E228E2E2E2E2E2E2E2E228E2E2E2E2E2E2E228E2E2E2E2E2E2E2E2E2E2E2E2E2E2E2E2E2E2E2E2E2E2E2E2E2E2
310
E2E2E2E2E2E2E2E2E228E2E2E2E2E2E2E2E2E2E2E2E2E2E2E2E2E2E2E2E2E2E2E2E2E2E2E2E2E2E2E2E2E2E2E2E2E2E2E2E2E2E2E2E2E2E2E2E2E2E2E2E2E228E2E2E2E2E2E2E2E2E2E2BEE2E2E2E2E2E2E2E2E2E2E2BEE2F5E2BEF5EFBEE2F5E2BEE2E2E2E2E2E2E2E2E2BEE2E2E2E2E2E2E2E2E2E2E2E2E2E2E2E2E2E2E2
310
E2E2E2E2E2E2E2E2E228E2E2E2E2E2E2E2E228E2E2E2E2E2E2E228282828282828282828282828282828282828282828282828282828282828282828282828E2E2E2E2E2E2E2E2E2E2E2E2E2E2E2E2E2E2E2E2E2E2E2E2E2E2E2E2E2E2E2E2E2E2E2E2E2E2E2E2E2E2E2E2E2E2E2E2E2E2E2E2E228E2E2E2E2E2E2E2E2E2E2
310
BEE2E2E2E2E2E2E2E2E2E2E2BEE2F5E2BEF5EFBEE2F5BEBEE2E2E2E2E2E2E2E2E2BEE2E2E2E2E2E2E2E2E2E2E2E2E2E2E2E2E2E2E2E2E2E2E2E2E2E2E2E228E2E2E2E2E2E2E2E228E2E2E2E2E2E2E228E2E2E2E2E2E2E2E2E2E2E2E2E2E2E2E2DCDCDCE2E2E2E2E2E2E2E2E2E2E2E2E2E2E2E228E2E2E2E2E2E2E2E2E2E2E2
310
E2E2E2E2E2E2E2E2E2E2E2E2E2E2E2E2E2E2E2E2E2E2E2E2E2E2E2E2E2E2E2E2E2E2E2E2E2E2E2E2E2E228E2E2E2E2E2E2E2E2E2E2BEE2E2E2E2E2E2E2E2E2E2E2BEBEF5E2BEF5EFBEE2F5BEBEE2E2E2E2E2E2E2E2E2BEE2E2E2E2E2E2E2E2E2E2E2E2E2E2E2E2E2E2E2E2E2E2E2E2E2E2E2E228E2E2E2E2E2E2E2E228E2E2
310
E2E2E2E2E228E2E2E2E2E2E2E2E2E2E2E2E2E2E2E2E2DCDCDCE2E2E2E2E2E2E2E2E2E2E2E2E2E2E2E228E2E2E2E2E2E2E2E2E2E2E2E2E2E2E2E2E2E2E2E2E2E2E2E2E2E2E2E2E2E2E2E2E2E2E2E2E2E2E2E2E2E2E2E2E2E2E2E2E2E2E2E2E228E2E2E2E2E2E2E2E2E2E2BEE2E2E2E2E2E2E2E2E2E2E2BEBEF5E2BEF5EFBEE2
310
F5E2BEE2E2E2E2E2E2E2E2E2BEE2E2E2E2E2E2E2E2E2E2E2E2E2E2E2E2E2E2E2E2E2E2E2E2E2E2E2E228E2E2E2E2E2E2E2E228E2E2E2E2E2E2E228E2E2E2E2E2E2E2E2E2E2E2E2E2E2E2E2E2E2E2E2E2E2E2E2E2E2E2E2E2E2E2E2E2E2E228E2E2E2E2E2E2E2E2E2E2E2E2E2E2E2E2E2E2E2E2E2E2E2E2E2E2E2E2E2E2E2E2
310
E2E2E2E2E2E2E2E2E2E2E2E2E2E2E2E2E2E2E2E2E228E2E2E2E2E2E2E2E2E2E2BEE2E2E2E2E2E2E2E2E2E2E2BEE2F5E2BEF5EFBEE2F5E2BEE2E2E2E2E2E2E2E2E2BEE2E2E2E2E2E2E2E2E2E2E2E2E2E2E2E2E2E2E2E2E2E2E2E2E2E2E2E228E2E2E2E2E2E2E2E228E2E2E2E2E2E2E228E2E2E2E2E2E2E2E2E2E2E228282828
310
282828282828282828282828282828282828282828E2E2E2E2E2E2E2E2E2E2E2E2E2E2E2E2E2E2E2E2E2E2E2E2E2E2E2E2E2E2E2E2E2E2E2E2E2E2E2E2E2E2E2E2E2E2E2E2E2E2E2E2E228E2E2E2E2E2E2E2E2E2E2BEE2E2E2E2E2E2E2E2E2E2E2BEE2F5E2BEF5EFBEE2F5E2BEE2E2E2E2E2E2E2E2E2BEE2E2E2E2E2E2E2E2
310
E2E2E2E2E2E2E2E2E2E2E2E2E2E2E2E2E2E2E2E228E2E2E2E2E2E2E2E228E2E2E2E2E2E2E228E2E2E2E2E2E2E2E2E2E2E228E2E2E2E2E2E2E2E2E2E2DCDCDCE2E2E2E2E2E2E2E2E2E228E2E2E2E2E2E2E2E2E2E2E2E2E2E2E2E2E2E2E2E2E2E2E2E2E2E2E2E2E2E2E2E2E2E2E2E2E2E2E2E2E2E2E2E2E2E2E2E2E2E2E2E2E2
310
28E2E2E2E2E2E2E2E2E2E2BEE2E2E2E2E2E2E2E2E2E2E2BEE2F5E2BEF5EFBEE2F5E2BEE2E2E2E2E2E2E2E2E2BEE2E2E2E2E2E2E2E2E2E2E2E2E2E2E2E2E2E2E2E2E2E2E2E2E2E2E2E228E2E2E2E2E2E2E2E228E2E2E2E2E2E2E228E2E2E2E2E2E2E2E2E2E2E228E2E2E2E2E2E2E2E2E2E2DCDCDCE2E2E2E2E2E2E2E2E2E228
310
E2E2E2E2E2E2E2E2E2E2E2E2E2E2E2E2E2E2E2E2E2E2E2E2E2E2E2E2E2E2E2E2E2E2E2E2E2E2E2E2E2E2E2E2E2E2E2E2E2E2E2E2E228E2E2E2E2E2E2E2E2E2E2BEE2E2E2E2E2E2E2E2E2E2E2BEE2F5E2BEF5EFBEE2F5E2BEE2E2E2E2E2E2E2E2E2BEE2E2E2E2E2E2E2E2E2E2E2E2E2E2E2E2E2E2E2E2E2E2E2E2E2E2E2E228
310
E2E2E2E2E2E2E2E228E2E2E2E2E2E2E228E2E2E2E2E2E2E2E2E2E2E228E2E2E2E2E2E2E2E2E2E2E2E2E2E2E2E2E2E2E2E2E2E2E228E2E2E2E2E2E2E2E2E2E2E2E2E2E2E2E2E2E2E2E2E2E2E2E2E2E2E2E2E2E2E2E2E2E2E2E2E2E2E2E2E2E2E2E2E2E2E2E2E2E2E2E2E228E2E2E2E2E2E2E2E2E2E2BEE2E2E2E2E2E2E2E2E2
310
E2E2BEE2F5E2BEF5EFBEE2F5E2BEE2E2E2E2E2E2E2E2E2BEE2E2E2E2E2E2E2E2E2E2E2E2E2E2E2E2E2E2E2E2E2E2E2E2E2E2E2E228E2E2E2E2E2E2E2E228E2E2E2E2E2E2E228E2E2E2E2E2E2E2E2E2E2E228E2E2E2E2E2E2282828282828282828282828282828282828E2E2E2E2E2E2E2E2E2E2E2E2E2E2E2E2E2E2E2E2E2
310
E2E2E2E2E2E2E2E2E2E2E2E2E2E2E2E2E2E2E2E2E2E2E2E2E2E2E2E2E2E2E2E228E2E2E2E2E2E2E2E2E2E2BEE2E2E2E2E2E2E2E2E2E2E2BEE2F5E2BEF5EFBEE2F5E2BEE2E2E2E2E2E2E2E2E2BEE2E2E2E2E2E2E2E2E2E2E2E2E2E2E2E2E2E2E2E2E2E2E2E2E2E2E2E228E2E2E2E2E2E2E2E228E2E2E2E2E2E2E228E2E2E2E2
310
E2E2E2E2E2E2E228E2E2E2E2E2E228E2E2E2E2E2E2E2DCDCE2E2E2E2E2E2E228E2E2E2E2E2E2E2E2E2E2E2E2E2E2E2E2E2E2E2E2E2E2E2E2E2E2E2E2E2E2E2E2E2E2E2E2E2E2E2E2E2E2E2E2E2E2E2E2E2E2E2E2E228E2E2E2E2E2E2E2E2E2E2BEE2E2E2E2E2E2E2E2E2E2E2BEE2F5E2BEF5EFBEE2F5E2BEE2E2E2E2E2E2E2
310
E2E2BEE2E2E2E2E2E2E2E2E2E2E2E2E2E2E2E2E2E2E2E2E2E2E2E2E2E2E2E228E2E2E2E2E2E2E2E228E2E2E2E2E2E2E228E2E2E2E2E2E2E2E2E2E2E228E2E2E2E2E2E228E2E2E2E2E2E2E2DCDCE2E2E2E2E2E2E228E2E2E2E2E2E2E2E2E2E2E2E2E2E2E2E2E2E2E2E2E2E2E2E2E2E2E2E2E2E2E2E2E2E2E2E2E2E2E2E2E2E2
310
E2E2E2E2E2E2E2E2E2E2E228E2E2E2E2E2E2E2E2E2E2BEE2E2E2E2E2E2E2E2E2E2E2BEE2F5E2BEF5EFBEE2F5BEBEE2E2E2E2E2E2E2E2E2BEE2E2E2E2E2E2E2E2E2E2E2E2E2E2E2E2E2E2E2E2E2E2E2E2E2E2E2E228E2E2E2E2E2E2E2E228E2E2E2E2E2E2E228E2E2E2E2E2E2E2E2E2E2E228E2E2E2E2E2E228E2E2E2E2E2E2
310
E2E2E2E2E2E2E2E2E2E228E2E2E2E2E2E2E2E2E2E2E2E2E2E2E2E2E2E2E2E2E2E2E2E2E2E2E2E2E2E2E2E2E2E2E2E2E2E2E2E2E2E2E2E2E2E2E2E2E2E2E2E2E228E2E2E2E2E2E2E2E2E2E2BEE2E2E2E2E2E2E2E2E2E2E2BEBEF5E2BEF5EFBEE2F5E2BEE2E2E2E2E2E2E2E2E2BEE2E2E2E2E2E2E2E2E2E2E2E2E2E2E2E2E2E2
310
E2E2E2E2E2E2E2E2E2E228E2E2E2E2E2E2E2E228E2E2E2E2E2E2E228E2E2E2E2E2E2E2E2E2E2E228E2E2E2E2E2E228E2E2E2E22828E2E2E2E2E2E2E2E2E22828E2E2E2E2E2E2E2E2E2E2E2E2E2E2E2E2E2E2E2E2E2E2E2E2E2E2E2E2E2E2E2E2E2E2E2E2E2E2E2E2E2E2E2E2E2E2E2E2E2E2E2E2E228E2E2E2E2E2E2E2E2E2
310
E2BEE2E2E2E2E2E2E2E2E2E2E2BEE2F5E2BEF5EFBEE2F5E2BEE2E2E2E2E2E2E2E2E2BEE2E2E2E2E2E2E2E2E2E2E2E2E2E2E2E2E2E2E2E2E2E2E2E2E2E2E2E228E2E2E2E2E2E2E2E228E2E2E2E2E2E2E228E2E2E2E2E2E2E2E2E2E2E228E2E2E2E2E2E228E2E2E2E22828282828DCDCDC2828282828E2E2E2E2E2E2E2E2E2E2
310
E2E2E2E2E2E2E2E2E2E2E2E2E2E2E2E2E2E2E2E2E2E2E2E2E2E2E2E2E2E2E2E2E2E2E2E2E2E2E2E2E2E2E228E2E2E2E2E2E2E2E2E2E2BEE2E2E2E2E2E2E2E2E2E2E2BEE2F5E2BEF5EFBEE2F5E2BEE2E2E2E2E2E2E2E2E2BEE2E2E2E2E2E2E2E2E2E2E2E2E2E2E2E2E2E2E2E2E2E2E2E2E2E2E2E228E2E2E2E2E2E2E2E228E2
310
E2E2E2E2E2E228E2E2E2E2E2E2E2E2E2E2E228E2E2E2E2E2E228E2E2E2E228E2E2E2E2DCDCDCE2E2E2E228E2E2E2E2E2E2E2E2E2E2E2E2E2E2E2E2E2E2E2E2E2E2E2E2E2E2E2E2E2E2E2E2E2E2E2E2E2E2E2E2E2E2E2E2E2E2E2E2E2E2E2E2E228E2E2E2E2E2E2E2E2E2E2BEE2E2E2E2E2E2E2E2E2E2E2BEE2F5E2BEF5EFBE
310
E2F5E2BEE2E2E2E2E2E2E2E2E2BEE2E2E2E2E2E2E2E2E2E2E2E2E2E2E2E2E2E2E2E2E2E2E2E2E2E2E2E228E2E2E2E2E2E2E2E228E2E2E2E2E2E2E228E2E2E2E2E2E2E2E2E2E2E228E2E2E2E2E2E228E2E2E2E228E2E2E2E2E2DCDCE2E2E2E228E2E2E2E2E2E2E2E2E2E2E2E2E2E2E2E2E2E2E2E2E2E2E2E2E2E2E2E2E2E2E2
310
E2E2E2E2E2E2E2E2E2E2E2E2E2E2E2E2E2E2E2E2E2E228E2E2E2E2E2E2E2E2E2E2BEE2E2E2E2E2E2E2E2E2E2E2BEE2F5E2BEF5EFBEE2F5E2BEE2E2E2E2E2E2E2E2E2BEE2E2E2E2E2E2E2E2E2E2E2E2E2E2E2E2E2E2E2E2E2E2E2E2E2E2E2E228E2E2E2E2E2E2E2E228E2E2E2E2E2E2E228E2E2E2E2E2E2E2E2E2E2E228E2E2
310
E2E2E2E228E2E2E2E228E2E2E2E2E2E2E2E2E2E2E228E2E2E2E2E2E2E2E2E2E2E2E2E2E2E2E2E2E2E2E2E2E2E2E2E2E2E2E2E2E2E2E2E2E2E2E2E2E2E2E2E2E2E2E2E2E2E2E2E2E2E2E2E228E2E2E2E2E2E2E2E2E2E2BEE2E2E2E2E2E2E2E2E2E2E2BEE2F5E2BEF5EFBEE2F5E2BEE2E2E2E2E2E2E2E2E2BEE2E2E2E2E2E2E2
310
E2E2E2E2E2E2E2E2E2E2E2E2E2E2E2E2E2E2E2E2E228E2E2E2E2E2E2E2E228E2E2E2E2E2E2E228E2E2E2E2E2E2E2E2E2E2E228E2E2E2E2E2E228E2E2E2E228E2E2E2E2E2E2E2E2E2E2E228E2E2E2E2E2E2E2E2E2E2E2E2E2E2E2E2E2E2E2E2E2E2E2E2E2E2E2E2E2E2E2E2E2E2E2E2E2E2E2E2E2E2E2E2E2E2E2E2E2E2E2E2
310
E228E2E2E2E2E2E2E2E2E2E2BEE2E2E2E2E2E2E2E2E2E2E2BEE2F5E2BEF5EFBEE2F5E2BEE2E2E2E2E2E2E2E2E2BEE2E2E2E2E2E2E2E2E2E2E2E2E2E22828282828282828282828282828F5F5F5F5F5F5F5F5F5F5F5F5F5F5F5F5F5F5F5F5F5F5F5F5F5F5F5F5F5F5F5F5F5F5F5F5F5F5F5F5F5F5F5F5F5F5F5F5F5F5F5F5F5
310
F5F5F5F5F5F5F5F5F5F5F5F5F5F5F5F5F5F5F5F5F5F5F5F5F5F5F5F5F5F5F5F5F5F5F5F5F5F5F5F5F5F5F5F5F5F5F5F5F5F5F5F5F5F5282828282828E2E2E2E2E2BEE2E2E2E2E2E2E2E2E2E2E2BEE2F5E2BEF5EFBEE2F5E2BEE2E2E2E2E2E2E2E2E2BEE2E2E2E2E2E2E2E2E2E2E2E2E2E22828E2E2E2E2E2E2E2E2E2E2E2E2
310
F5E2E2E2E2E2E2E2E228E2E2E2E2E2E2E228E2E2E2E2E2E2E2E2E2E2E228E2E2E2E2E2E228E2E2E2E228E2E2E2E2E2E2E2E2E2E2E22DE2E2E2E2E2E2E2E2E2E2E2E2E2E2E2E2E2E2E2E2E2E2E2E2E2E2E2E2E2E2E2E2E2E2E2E2E2E2E2E2E2E2E2E2E2E2E2E2E2E2E2E2E2F5E2E2E2E228E2E2E2E2E2BEE2E2E2E2E2E2E2E2
310
E2E2E2BEE2F5E2BEF5EFBEE2F5BEBEE2E2E2E2E2E2E2E2E2BEE2E2E2E2E2E2E2E2E2E2E2E2E2E2E228E2E2E2E2E2E2E2E2E2E2E2E2F5E2E2E2E2E2E2E2E228E2E2E2E2E2E2E228E2E2E2E2E2E2E2E2E2E2E228E2E2E2E2E2E228E2E2E2E228E2E2E2E2E2E2E2E2E2E2E22DE2E2E2E2E2E2E2E2E2E2E2E2E2E2E2E2E2E2E2E2
310
E2E2E2E2E2E2E2E2E2E2E2E2E2E2E2E2E2E2E2E2E2E2E2E2E2E2E2E2E2E2E2E2E2F5E2E2E2E228E2E2E2E2E2BEE2E2E2E2E2E2E2E2E2E2E2BEBEF5E2BEF5EFBEE2F5BEBEE2E2E2E2E2E2E2E2E2BEE2E2E2E2E2E2E2E2E2E2E2E2E2E2E228E2E2E2E2E2E2E2E2E2E2E2E2F5E2E2E2E2E2E2E2E228E2E2E2E2E2E2E228E2E2E2
310
E2E2E2E2E2E2E2E228E2E2E2E2E2E228E2E2E2E228E2E2E2E2E2E2E2E2E2E2E22DE2E2E2E2E2E2E2E2E2E2E2E2E2E2E2E2E2E2E2E2E2E2E2E2E2E2E2E2E2E2E2E2E2E2E2E2E2E2E2E2E2E2E2E2E2E2E2E2E2E2E2E2E2F5E2E2E2E228E2E2E2E2E2BEE2E2E2E2E2E2E2E2E2E2E2BEBEF5E2BEF5EFBEE2F5BEBEE2E2E2E2E2E2
310
E2E2E2BEE2E2E2E2E2E2E2E2E2E2E2E2E2E2E228E2E2E2E2E2E2E2E2E2E2E2E2F5E2E2E2E2E2E2E2E228E2E2E2E2E2E2E228E2E2E2E2E2E2E2E2E2E2E228E2E2E2E2E2E228E2E2E2E228E2E2E2E2E2E2E2E2E2E2E22DE2E2E2E2E2E2E2E2E2E2E2E2E2E2E2E2E2E2E2E2E2E2E2E2E2E2E2E2E2E2E2E2E2E2E2E2E2E2E2E2E2
310
E2E2E2E2E2E2E2E2E2E2E2E2F5E2E2E2E228E2E2E2E2E2BEE2E2E2E2E2E2E2E2E2E2E2BEBEF5E2BEF5EFBEE2F5E2BEE2E2E2E2E2E2E2E2E2BEE2E2E2E2E2E2E2E2E2E2E2E2E2E2E228E2E2E2E2E2E2E2E2E2E2E2E2F5E2E2E2E2E2E2E2E228E2E2E2E2E2E2E228E2E2E2E2E2E2E2E2E2E2E228E2E2E2E2E2E228E2E2E2E228
310
E2E2E2E2E2E2E2E2E2E2E22DE2E2E2E2E2E2E2E2E2E2E2E2E2E2E2E2E2E2E2E2E2E2E2E2E2E2E2E2E2E2E2E2E2E2E2E2E2E2E2E2E2E2E2E2E2E2E2E2E2E2E2E2E2F5E2E2E2E228E2E2E2E2E2BEE2E2E2E2E2E2E2E2E2E2E2BEE2F5E2BEF5EFBEE2F5E2BEE2E2E2E2E2E2E2E2E2BEE2E2E2E2E2E2E2E2E2E2E2E2E2E2E228E2
310
E2E2E2E2E2E2E2E2E2E2E2F5E2E2E2E2E2E2E2E228E2E2E2E2E2E2E228E2E2E2E2E2E2E2E2E2E2E228E2E2E2E2E2E228E2E2E2E228E2E2E2E2E2E2E2E2E2E2E22DE2E2E2E2E2E2E2E2E2E2E2E2E2E2E2E2E2E2E2E2E2E2E2E2E2E2E2E2E2E2E2E2E2E2E2E2E2E2E2E2E2E2E2E2E2E2E2E2E2E2E2E2E2F5E2E2E2E228E2E2E2
310
E2E2BEE2E2E2E2E2E2E2E2E2E2E2BEE2F5E2BEF5EFBEE2F5E2BEE2E2E2E2E2E2E2E2E2BEE2E2E2E2E2E2E2E2E2E2E2E2E2E2E228E2E2E2E2E2E2E2E2E2E2E2E2F5E2E2E2E2E2E2E2E22DE2E2E2E2E2E2E22DE2E2E2E2E2E2E2E2E2E2E228E2E2E2E2E2E228E2E2E2E228F5F5F5F5F5F5F5F5F5F5F5F5F5F5F5F5F5F5F5F5F5
310
F5282828282828282828E2E2E2E2E2E2E2E2E2E2E2E2E2E2E2E2E22DE2E2E2E2E2E22DE2E2E2E2E2E2E2E2E2F5E2E2E2E228E2E2E2E2E2BEE2E2E2E2E2E2E2E2E2E2E2BEE2F5E2BEF5EFBEE2F5E2BEE2E2E2E2E2E2E2E2E2BEE2E2E2E2E2E2E2E2E2E2E2E2E2E2E228E2E2E2E2E2E2E2E2E2E2E2E2F5E2E2E2E2E2E2E2E228
310
F5E2E2E2E2E2F5F5E2E2E2E2E2E2E2E2E2E2E228E2E2E2E2E2E228E2E2E2E2F5E2E2E2E2E2E2E2E2E2E2E22DE2E2E2E2E2E2E2E2E2E2E2E2F5E2E2E2E228E2E2E2E2E2E2E2E2E2E2E2E2E2E2E2E2E2F52DF5E2E2E2E2E22DF5E2E2E2E2E2E2E2E2F5E2E2E2E228E2E2E2E2E2BEE2E2E2E2E2E2E2E2E2E2E2BEE2F5E2BEF5EF
310
BEE2F5E2BEE2E2E2E2E2E2E2E2E2BEE2E2E2E2E2E2E2E2E2E2E2E2E2E2E228E2E228282828282828282828F528282828282828F5F5282DE2E2E22DF5F5F5E2E2E2E2E2E2E2E2E2E228E2E2E2E2E2E228E2E2E2E2F5E2E2E2E2E2E2E2E2E2E2E22DE2E2E2E2E2E2E2E2E2E2E2E2F5E2E2E2E228E2E2E2E2E2E2E2E2E2E2E2E2
310
E2E2E2E2E22D2D2D2DE2E2E22D2D2D2DE2E2E2E2E2E2E2F5E2E2E2E228E2E2E2E2E2BEE2E2E2E2E2E2E2E2E2E2E2BEE2F5E2BEF5EFBEE2F5E2BEE2E2E2E2E2E2E2E2E2BEE2E2E2E2E2E2E2E2E2E2E2E2E2E2E228E2E2E228E2E2E2E2E2E2E2E2F5E2E2E2E2E2E2E2E2F5E228E2E2E2E2E2F5E2E2E2E2E2E2E2E2E2E2E228E2
310
E2E2E2E2E228E2E2E2E2F5E2E2E2E2E2E2E2E2E2E2E22DE2E2E2E2E2E2E2E2E2E2E2E2F5E2E2E2E228E2E2E2E2E2E2E2E2E2E2E2E2E2E2E2E2E2E22DE2E2E2E2E2E22DE2E2E2E2E2E2E2E2E2F5E2E2E2E228E2E2E2E2E2BEE2E2E2E2E2E2E2E2E2E2E2BEE2F5E2BEF5EFBEE2F5E2BEE2E2E2E2E2E2E2E2E2BEE2E2E2E2E2E2
310
E2E2E2E2E2E2E2E2E228E2E2E228E2E2E2E2E2E2E2E2F5E2E2E2E2E2E2E2E2E2E2E228E2E2E2E2E2E2E2E2E2E2E2E2E2E2E2E228E2E2E2E2E2E228E2E2E2E2F5E2E2E2E2E2E2E2E2E2E2E22DE2E2E2E2E2E2E2E2E2E2E2E2F5E2E2DCDCDCE2E2E2E2E2E2E2E2E2E2E2E2E2E2E2E2E2E2E2E2E2E2E2E2E2E2E2E2E2E2E2E2E2
310
E2E2F5E2E2E2E228E2E2E2E2E2BEE2E2E2E2E2E2E2E2E2E2E2BEE2F5E2BEF5EFBEE2F5E2BEE2E2E2E2E2E2E2E2E2BEE2E2E2E2E2E2E2E2E2E2E2E2E2E2E228E2E2E228E2E2E2E2E2E2E2E2F5E2E2E2E2E2E2E2E2E2E2E2E228282828E2E2E2E2E2E2E2E2E2E2E2E228E2E2E2E2E2E228E2E2E2E2F5E2E2E2E2E2E2E2E2E2E2
310
E22DE2E2E2E2E2E2E2E2E2E2E2E2F5E2E2DCDCDCE2E2E2E2E2E2E2E2E2E2E2E2E2E2E2E2E2E2E2E2E2E2E2E2E2E2E2E2E2E2E2E2E2E2E2F5E2E2E2E228E2E2E2E2E2BEE2E2E2E2E2E2E2E2E2E2E2BEE2F5E2BEF5EFBEE2DCDCDCE2E2E2E2E2E2E2E2E2BEE2E2E2E2E2E2E2E2E2E2E2E2E2E2E228E2E2E228E2E2E2E2E2E2E2
310
E2F5E2E2E2E2E2E2E2E2E2E2E2E2DCDCDCDCE2E2E2E2E2E2E2E2E2E2E2E228E2E2E2E2E2E228E2E2E2E2F5E2E2E2E2E2E2E2E2E2E2E22DE2E2E2E2E2E2E2E2E2E2E2E2F5E2E2E2DC28E2E2E2E2E2E2E2E2E2E2E2E2E2E2E2E2E2E2E2E2E2E2E2E2E2E2E2E2E2E2E2E2E2E2E2F5E2E2E2E228E2E2E2E2E2BEE2E2E2E2E2E2E2
310
E2E2E2E2DCDCDCE2BEF5EFBEE2F5E2BEE2E2E2E2E2E2E2E2E2BEE2E2E2E2E2E2E2E2E2E2E2E2E2E2E228E2E2E228E2E2E2E2E2E2E2E2F5E2E2E2E2E2E2E2E2E2E2E2E2DCDCDCDCE2E2E2E2E2E2E2E2E2E2E2E228E2E2E2E2E2E228E2E2E2E2F5E2E2E2E2E2E2E2E2E2E2E22DE2E2E2E2E2E2E2E2E2E2E2E2F5E2E2E2E228E2
310
E2E2E2E2E2E2E2E2E2E2E2E2E2E2E2E2E2E2E2E2E2E2E2E2E2E2E2E2E2E2E2E2E2E2F5E2E2DCDC28E2E2E2E2E2BEE2E2E2E2E2E2E2E2E2E2E2BEE2F5E2BEF5EFBEE2F5E2BEE2E2E2E2E2E2E2E2E2BEE2E2E2E2E2E2E2E2E2E2E2E2E2E2E228E2E2E228E2E2E2E2E2E2E2E2F5E2E2E2E2E2E2E2E2E2E2E2E2E2E2E2E2E2E2E2
310
E2E2E2E2E2E2E2E2E228E2E2E2E2E2E228E2E2E2E2F5E2E2E2E2E2E2E2E2E2E2E22DE2E2E2E2E2E2E2E2E2E228E2F5E2E2E2E228E2E2E2E2E2E2E2E2E2E2E2E2E2E2E2E2E2E2E2E2E2E2E2E2E2E2E2E2E2E2E2E2E2E2E2F5E2E2DCDC28E2E2E2E2E2BEE2E2E2E2E2E2E2E2E2E2E2BEE2F5E2BEF5EFBEE2F5E2BEE2E2E2E2E2
310
E2E2E2E2BEE2E2E2E2E2E2E2E2E2E2E2E2E2E2E228E2E2E228E2E2E2E2E2E2E2E2F5E2E2E2E2E2E2E2E2E2E2E2E2E2E2E2E2E2E2E2E2E2E2E2E2E2E2E2E228E2E2E2E2E2E228E2E2E2E2F5E2E2E2E2E2E2E2E2E2E2E22DE2E2E2E2E2E2E2E2E2E2E2E2F5E2E2E2E228E2E2E2E2E2E2E2E2E2E2E2E2E2E2E2E2E2E2E2E2E2E2
310
E2E2E2E2E2E2E2E2E2E2E2E2E2F5E2E2DCDC28E2E2E2E2E2BEE2E2E2E2E2E2E2E2E2E2E2BEE2F5E2BEF5EFBEE2F5E2BEE2E2E2E2E2E2E2E2E2BEE2E2E2E2E2E2E2E2E2E2E2E2E2E2E228E2E2E228E2E2E2E2E2E2E2E2F5E2E2E2E2E2E2E2E2E2E2E2E2E2E2E2E2E2E2E2E2E2E2E2E2E2E2E2E228E2E2E2E2E2E228E2E2E2E2
310
E2F5F5F5F5F5F5F5F5F5F5F5F5F5F5F5F5F5F5F5F5F5F5282828282828282828E2E2E2E2E2E2E2E2E2E2E2E2E2E2E2E2E2E2E2E2E2E2E2E2E2E2E2E2E2E2E2E2E2E2F5E2E2E2E228E2E2E2E2E2BEE2E2E2E2E2E2E2E2E2E2E2BEE2F5E2BEF5EFBEE2F5E2BEE2E2E2E2E2E2E2E2E2BEE2E2E2E2E2E2E2E2E2E2E2E2E2DCDC28
310
E2E2E228E2E2E2E2E2E2E2E2F5E2E2E2E2E2E2E2E2E2E2E2E2E2E2E2E2E2E2E2E2E2E2E2E2E2E2E2E228E2E2E2E2E2E228E2E2E2E2E2E2E2E2E2E2E2E2E2E2E2E22DE2E2E2E2E2E2E2E2E2E2E2E228E2E2E2E2E2E2E2E2E2E2E2E2E2E2E2E2E2E2E2E2E2E2E2E2E2E2E2E2E2E2E2E2E2E2E2E2E2E2E2E2F5E2E2E2E228E2E2
310
E2E2E2BEE2E2E2E2E2E2E2E2E2E2E2BEE2F5E2BEF5EFBEE2F5E2BEE2E2E2E2E2E2E2E2E2BEE2E2E2E2E2E2E2E2E2E2E2E2E2DCDC28E2E2E228E2E2E2E2E2E2E2E2F5E2E2E2E2E2E2E2E2E2E2E2E2E2E2E2E2E2E2E2E2E2E2E2E2E2E2E2E228E2E2E2E2E2E228E2E2E2E2E2E2E2E2E2E2E2E2E2E2E2E22DE2E2E2E2E2E2E2E2
310
E2E2E2E2E228282828E2E2E2E2E2E2E2E2E2E2E2E2E2E2E2E2E2E2E2E2E2E2E2E2E2E2E2E2E2E2E2E2E2E2E2E2F5E2E2E2E228E2E2E2E2E2BEE2E2E2E2E2E2E2E2E2E2E2BEE2F5E2BEF5EFBEE2F5E2BEE2E2E2E2E2E2E2E2E2BEE2E2E2E2E2E2E2E2E2E2E2E2E2DCDC28E2E2E228E2E2E2E2E2E2E2E2F5E2E2E2E2E2E2E2E2
310
E2E2E2E2E2E2E2E2E2E2E2E2E2E2E2E2E2E2E2E228E2E2E2E2E2E228E2E2E2E2E2E2E2E2E2E2E2E2E2E2E2E22DE2E2E2E2E2E2E2E2E2E2E2E2E2DCDCDCDCE2E2E2E2E2E2E2E2E2E2E2E2E2E2E2E2E2E2E2E2E2E2E2E2E2E2E2E2E2E2E2E2E2E2E2E2F5E2E2E2E228E2E2E2E2E2BEE2E2E2E2E2E2E2E2E2E2E2BEE2F5E2BEF5
310
EFBEE2F5E2BEE2E2E2E2E2E2E2E2E2BEE2E2E2E2E2E2E2E2E2E2E2E2E2E2E228E2E2E228E2E2E2E2E2E2E2E2F5E2E2E2E2E2E2E2E2E2E2E2E2E2E2E2E2E2E2E2E2E2E2E2E2E2E2E2E228E2E2E2E2E2E228E2E2E2E2E2E2E2E2E2E2E2E2E2E2E2E22DE2E2E2E2E2E2E2E2E2E2E2E2E2DCDCDCDCE2E2E2E2E2E2E2E2E2E2E2E2
310
E2E2E2E2E2E2E2E2E2E2E2E2E2E2E2E2E2E2E2E2E2E2E2E2F5E2E2E2E228E2E2E2E2E2BEE2E2E2E2E2E2E2E2E2E2E2BEE2F5E2BEF5EFBEE2F5BEBEE2E2E2E2E2E2E2E2E2BEE2E2E2E2E2E2E2E2E2E2E2E2E2E2E228E2DCDC28E2E2E2E2E2E2E2E2F5E2E2E2E2E2E2E2E2E2E2E2E2E2E2E2E2E2E2E2E2E2E2E2E2E2E2E2E2F5
310
E2E2E2E2E2E2F5E2E2E2E2E2E2E2E2E2E2E2E2E2E2E2E22DE2E2E2E2E2E2E2E2E2E2E2E2E2E2E2E2E22DE2E2E2E2E2E22DE2E2E2E2E2E2E2E2E2E2E2E2E2E2E2E2E2E2E2E2E2E2E2E2E2E2E2E2F5E2E2E2E228E2E2E2E2E2BEE2E2E2E2E2E2E2E2E2E2E2BEBEF5E2BEF5EFBEE2F5E2BEE2E2E2E2E2E2E2E2E2BEE2E2E2E2E2
310
E2E2E2E2E2E2E2E2E2E228E2DCDC28E2E2E22828282828F52828282828282828282828282828282828282828282828282828F5F5F5F5E2E2E22DF52DF5E2E2E2E2E2E2E2E2E2E2E2E2E2E2E22DE2E2E2E2E2E2E2E2E2E2E2E2E2E2E22D2D2D2D2DE2E2E22D2D2D2DE2E2E2E2E2E2E2E2E2E2E2E2E2E2E2E2E2E2E2E2E2E2E2
310
E2E2E2F5E2E2E2E228E2E2E2E2E2BEE2E2E2E2E2E2E2E2E2E2E2BEBEF5E2BEF5EFBEE2F5BEBEE2E2E2E2E2E2E2E2E2BEE2E2E2E2E2E2E2E2E2E2E2E2E2E2E228E2DCDC28E2E2E228E2E2E2E2F5E2E2E2E2E2E2E2E2E2E2E2E2E2E2E2E2E2E2E2E2E2E2E2E2E2E2E2F5F5E2E2E2E2E2F52DF5E2E2E2E2E2E2E2E2E2E2E2E2E2
310
E2E22DE2E2E2E2E2E2E2E2E2E2E2E2E2E2E2E2F52DF5E2E2E2E2E22DF5E2E2E2E2E2E2E2E2E2E2E2E2E2E2E2E2E2E2E2E2E2E2E2E2E2E2E2F5E2E2E2E228E2E2E2E2E2BEE2E2E2E2E2E2E2E2E2E2E2BEBEF5E2BEF5EFBEE2F5E2BEE2E2E2E2E2E2E2E2E2BEE2E2E2E2E2E2E2E2E2E2E2E2E2E2E228E2DCDC28E2E2E228E2E2
310
E2E2F5E2E2E2E2E2E2E2E2E2E2E2E2E2E2E2E2E2E2E2E2E2E2E2E2E2E2E2E228282828E2E2E2F5E2E2E2E2E2E2E2E2E2E2E2E2E2E2E2282DE2E2E2E2E2E2E2E2E2E2E2E2E2E2E2E2E22DE2E2E2E2E2E22DE2E2E2E2E2E2E2E2E2E2E2E2E2E2E2E2E2E2E2E2E2E2E2E2E2E2E2E2F5E2E2E2E228E2E2E2E2E2BEE2E2E2E2E2E2
310
E2E2E2E2E2BEE2F5E2BEF5EFBEE2F5E2BEE2E2E2E2E2E2E2E2E2BEE2E2E2E2E2E2E2E2E2E2E2E2E2E2E228E2E2E228E2E2E228E2E2E2E2F5E2E2E2E2E2E2E2E2E2E2E2E2E2E2E2E2E2E2E2E2E2E2E2E2E228DC28282828282828282828282828DCDCDC2828282828282828282DE2E2E2E2E2E2E2E2E2E2E2E2E2E2E2E2E2E2
310
E2E2E2E2E2E2E2E2E2E2E2E2E2E2E2E2E2E2E2E2E2E2E2E2E2E2E2E2E2E2E2E2E2E2E2F5E2E2E2E228E2E2E2E2E2BEE2E2E2E2E2E2E2E2E2E2E2BEE2F5E2BEF5EFBEE2F5E2BEE2E2E2E2E2E2E2E2E2BEE2E2E2E2E2E2E2E2E2E2E2E2E2E2E228E2E2E228E2E2E228E2E2E2E2F5E2E2E2E2E2E2E2E2E2E2E2E2E2E2E2E2E2E2
310
E2E2E2E228E2E2E2DCE2E22828E2E2E2E2E2E2E2E2E2DCDCDCE2E2E2E2E2E2E2E2E22DE2E2E2E2E2E2E2E2E2E2E2E2E2E2E2E2E2E2E2E2E2E2E2E2E2E2E2E2E2E2E2E2E2E2E2E2E2E2E2E2E2E2E2E2E2E2E2E2E2E2E2E2E2F5E2E2E2E228E2E2E2E2E2BEE2E2E2E2E2E2E2E2E2E2E2BEE2F5E2BEF5EFBEE2F5E2BEE2E2E2E2
310
E2E2E2E2E2BEE2E2E2E2E2E2E2E2E2E2E2E2E2E2E228E2E2E228E2E2E228E2E2E2E2F5E2E2E2E2E2E2E2E2E2E2E2E2E2E2E2E2E2E2E2E2E2E228E2E2E2DCE2E22828E2E2E2E2E2E2E2E2E2DCDCDCE2E2E2E2E2E2E2E2E22DE2E2E2E2E2E2E2E2E2E2E2E2E2E2E2E2E2E2E2E2E2E2E2E2E2E2E2E2E2E2E2E2E2E2E2E2E2E2E2
310
E2E2E2E2E2E2E2E2E2E2E2E2E2E2F5E2E2E2E228E2E2E2E2E2BEE2E2E2E2E2E2E2E2E2E2E2BEE2F5E2BEF5EFBEE2F5E2BEE2E2E2E2E2E2E2E2E2BEE2E2E2E2E2E2E2E2E2E2E2E2E2E2E228E2E2E228E2E2E228E2E2E2E2F5E2E2E2E2E2E2E2E2E2E2E2E2E2E2E2E2E2E2E2E2E228282828282828282828E2E2E2E2E2E2E2E2
310
E2E2E2E2E2E2E2E2E2E2E2E2E22DE2E2E2E2E2E2E2E2E2E2E2E2E2E2E2E2E2E2E2E2E2E2F5F5E2E2E2E2E2E2E2E2E2E2E2E2E2E2E2E2E2E2E2E2E2E2E2E2E2E2E2E2E2F5E2E2E2E228E2E2E2E2E2BEE2E2E2E2E2E2E2E2E2E2E2BEE2F5E2BEF5EFBEE2F5E2BEE2E2E2E2E2E2E2E2E2BEE2E2E2E2E2E2E2E2E2E2E2E2E2E2E2
310
28E2E2E228E2DCDC28E2E2E2E228F5F5F5F5F5F5F5F5F5F5F5F5F5F5F5F5F5F5F5F5F52828282828282828E2E2F5F5E2E2E2E2E2E2E2E2E2E2E2E2E2E2E2E2E2E2E22DE2E2E2E2E2E2E2E2E2E2E2E2E2E2E2E2E2E2E2E2F5F5E2E2F5F5F5F5F5F5F5F5F5F5F5F5F5F5F5F5F5F5F5F5F5F5F5F5F5F5F5F5F5282828282828E2
310
E2E2E2E2BEE2E2E2E2E2E2E2E2E2E2E2BEE2F5E2BEF5EFBEE2F5E2BEE2E2E2E2E2E2E2E2E2BEE2E2E2E2E2E2E2E2E2E2E2E2E2E2E228E2E2E228E2DCDC28E2E2E2E228E2E2E2E2E2E2E2E2E2E2E2E2E2E2E2E2E2E2E2E2E2E228E2E2E2E2E228E2E2E2E2F5E2E2E2E2E2E2E2E2E2E2E2E2E2E2E2E2E2E22DE2E2E2E2E2E2E2
310
E2E2E2E2E2E2E2E2E2E2E2E2F5E2E2E2E2E2E2E2E2E2E2E2E2E2E2E2E2E2E2E2E2E2E2E2E2E2E2E2E2E2E2E2E2E2E2E2E2E2E2E2E2E2E2E2E2BEE2E2E2E2E2E2E2E2E2E2E2BEE2F5E2BEF5EFBEE2F5E2BEE2E2E2E2E2E2E2E2E2BEE2E2E2E2E2E2E2E2E2E2E2E2E2E2E228E2E2E228E2E2DC28E2E2E2E228E2E2E2E2E2E2E2
310
E2E2E2E2E2E2E2E2E2E2E2E2E2E2E228E2E2E2E2E228E2E2E2E2E2F5F5E2E2E2E2E2E2E2E2E2E2E2E2E2E2E2E22DE2E2E2E2E2E2E2E2E2E2E2E2E2E2E2E2E2F5F5E2E2E2E2E2E2E2E2E2E2E2E2E2E2E2E2E2E2E2E2E2E2E2E2E2E2E2E2E2E2E2E2E2E2E2E2E2E2E2E2E2E2E2E2E2BEE2E2E2E2E2E2E2E2E2E2E2BEE2F5E2BE
310
F5EFBEE2F5BEBEE2E2E2E2E2E2E2E2E2BEE2E2E2E2E2E2E2E2E2E2E2E2E2E2E228E2E2E228E2E2E228E2E2E2E228E2E2E2E2E2E2E2E2E2E2E2E2E2E2E2E2E2E2E2E2DCDC28E2E2E2E2E228E2E2E2E2E2E2E2F5E2E2E2E2E2E2E2E2E2E2E2E2E2E2E22DE2E2E2E2E2E2E2E2E2E2E2E2E2E2E2F5F5E2E2E2E2E2E2E2E2E2E2E2
310
E2E2E2E2E2E2E2E2E2E2E2E2E2E2E2E2E2E2E2E2E2E2E2E2E2E2E2E2E2E2E2E2E2E2E2E2BEE2E2E2E2E2E2E2E2E2E2E2BEBEF5E2BEF5EFBEE2F5E2BEE2E2E2E2E2E2E2E2E2BEE2E2E2E2E2E2E2E2E2E2E2E2E2E2E228E2E2E228E2E2E228E2E2E2E228E2E2E2E2E2E2E2E2E2E2E2E2E2E2E2E2E2E2E2E2E2E228E2E2E2E2E2
310
28E2E2E2E2E2E2E2E2F5E2E2E2E2E2E2E2E2E2E2E2E2E2E22DE2E2E2E2E2E2E2E2E2E2E2E2E2E2F5E2E2E2E2E2E2E2E2E2E2E2E2E2E2E2E2E2E2E2E2E2E2E2E2E2E2E2E2E2E2E2E2E2E2E2E2E2E2E2E2E2E2E2E2E2E2E2E2E2BEE2E2E2E2E2E2E2E2E2E2E2BEE2F5E2BEF5EFBEE2F5E2BEE2E2E2E2E2E2E2E2E2BEE2E2E2E2
310
E2E2E2E2E2E2E2E2E2E2E228E2E2E228E2E2E228E2E2E2E2282828282828282828282828282828282828282828282828282828282828E2E2E2E2E2E2E2E2E2F5F5E2E2E2E2E2E2E2E2E2E2E2E22DE2E2E2E2E2E2E2E2E2E2E2E2F5F5E2E2E2E2E2E2E2E2E2E2E2E2E2E2E2E2E2E2E2E2E2E2E2E2E2E2E2E2E2E2E2E2E2E2E2
310
E2E2E2E2E2E2E2E2E2E2E2E2E2E2E2BEE2E2E2E2E2E2E2E2E2E2E2BEE2F5E2BEF5EFBEE2F5E2BEE2E2E2E2E2E2E2E2E2BEE2E2E2E2E2E2E2E2E2E2E2E2E2E2E228E2E2E228E2E2E228E2E2E2E2E2E2E2E2E2E2E2E2E2E2E2E2E2E2DCDCDCE2E2E2E2E2E2E2E2E2E2E2E2E2E2E2E2E2E2E2E2E2E2E2E2F5E2E2E2E2E2E2E2E2
310
E2E2E22DE2E2E2E2E228E2E2E2E2E2F5E2E2E2E2E2E2E2E2E2E2E2E2E2E2E2E2E2E2E2E2E2E2E2E2E2E2E2E2E2E2E2E2E2E2E2E2E2E2E2E2E2E2E2E2E2E2E2E2E2E2E2E2BEE2E2E2E2E2E2E2E2E2E2E2BEE2F5E2BEF5EFBEE2F5E2BEE2E2E2E2E2E2E2E2E2BEE2E2E2E2E2E2E2E2E2E2E2E2E2E22828E2E2E228E2E2E228E2
310
E2E2E2E2E2E2E2E2E2E2E2E2E2E2E2E2DCDCDCE2E2E2E2E2E2E2E2E2E2E2E2E2E2E2E2E2E2E2E2E2E2E2E2E2E2F5F5E2E2E2E2E2E2E2E2E22DE2E2E2E2E228E2E2E2F5F5E2E2E2E2E2E2E2E2E2E2E2E2E2E2E2E2E2E2E2E2E2E2E2E2E2E2E2E2E2E2E2E2E2E2E2E2E2E2E2E2E2E2E2E2E2E2E2E2E2E2E2E2E2BEE2E2E2E2E2
310
E2E2E2E2E2E2BEE2F5E2BEF5EFBEE2F5E2BEE2E2E2E2E2E2E2E2E2BEE2E2E2E2E2E2E2E2E2E2E2E2E2E22828282828282828282828282828282828282828282828282828282828282828282828282828282828282828282828282828282828282828282828F5F5F5F5F5F5F5F528F5F5F5F52828F5F5F5E2E2E2E2E2E2E2E2
310
E2E2E2E2E2E2E2E2E2E2E2E2E2E2E2E2E2E2E2E2E2E2E2E2E2E2E2E2E2E2E2E2E2E2E2E2E2E2E2E2E2E2E2E2E2E2E2BEE2E2E2E2E2E2E2E2E2E2E2BEE2F5E2BEF5EFBEE2F5E2BEE2E2E2E2E2E2E2E2E2BEE2E2E2E2E2E2E2E2E2E2E2E2E2E2E2E2E2E2E2E2E2E2E2E2E2E2E2E2E2E2E2E2E2E2E2E2E2E2E2E2E2E2E2E2E2E2
310
E2E2E2E2E2E2E2E2E2E2E2E2E2E2E2E2E2E2E2E2E2E2E2E2E2E228E2E2E2E2E2E2E2E228E2E2E2E2E228E2E2E2E2E2E2E2E2E2E2E2E2E2E2E2E2E2E2E2E2E2E2E2E2E2E2E2E2E2E2E2E2E2E2E2E2E2E2E2E2E2E2E2E2E2E2E2E2E2E2E2E2E2E2E2E2E2E2BEE2E2E2E2E2E2E2E2E2E2E2BEE2F5E2BEF5EFBEE2F5E2BEE2E2E2
310
E2E2E2E2E2E2BEE2E2E2E2E2E2E2E2E2E2E2E2E2E2E2E2E2E2E2E2E2E2E2E2E2E2E2E2E2E2E2E2E2E2E2E2E2E2E2E2E2E2E2E2E2E2E2E2E2E2E2E2E2E2E2E2E2E2E2E2E2E2E2E2E2E2E2E2E2E2E22D282D2D2D2D2D2D2D2D282D2D2D2D28282D2D282D2DE2E2E2E2E2E2E2E2E2E2E2E2E2E2E2E2E2E2E2E2E2E2E2E2E2E2E2
310
E2E2E2E2E2E2E2E2E2E2E2E2E2E2E2E2E2E2E2E2E2E2E2E2E2E2BEE2E2E2E2E2E2E2E2E2E2E2BEE2F5E2BEF5EFBEE2F5E2BEE2E2E2E2E2E2E2E2E2BEE2E2E2E2E2E2E2E2E2E2E2E2E2E2E2E2E2E2E2E2E2E2E2E2E2E2E2E2E2E2E2E2E2E2E2E2E2E2E2E2E2E2E2E2E2E2E2E2E2E2E2E2E2E2E2E2E2E2E2E2E2E2E2E2E2E2E2
310
E2E2E2E2E228E2E2E2E2E2E2E2E228E2E2E2E2E228E2E228E2E2E2E2E2E2E2E2E2E2E2E2E2E2E2E2E2E2E2E2E2E2E2E2E2E2E2E2E2E2E2E2E2E2E2E2E2E2E2E2E2E2E2E2E2E2E2E2E2E2E2E2E2E2E2BEE2E2E2E2E2E2E2E2E2E2E2BEE2F5E2BEF5EFBEE2F5BEBEE2E2E2E2E2E2E2E2E2BEE2E2E2E2E2E2E2E2E2E2E2E2E2E2
310
E2E2E2E2E2E2E2E2E2E2E2E2E2E2E2E2E2E2E2E2E2E2E2E2E2E2E2E2E2E2E2E2E2E2E2E2E2E2E2E2E2E2E2E2E2E2E2E2E2E2E2E2E2E2E2E2E2E228E2E2E2E2E2E2E2E228E2E2E2E2E228E2E228E2E2E2E2E2E2E2E2E2E2E2E2E2E2E2E2E2E2E2E2E2E2E2E2E2E2E2E2E2E2E2E2E2E2E2E2E2E2E2E2E2E2E2E2E2E2E2E2E2E2
310
E2E2E2E2E2BEE2E2E2E2E2E2E2E2E2E2E2BEBEF5E2BEF5EFBEE2F5BEBEE2E2E2E2E2E2E2E2E2BEE2E2E2E2E2E2E2E2E2E2E2E2E2E2E2E2E2E2E2E2E2E2E2E2E2E2E2E2E2E2E2E2E2E2E2E2E2E2E2E2E2E2E2E2E2E2E2E2E2E2E2E2E2E2E2E2E2E2E2E2E2E2E2E2E2E2E2E2E2E2E2E228E2E2E2E2E2E2E2E228E2E2E2DCDC28
310
E2E228E2E2E2E2E2E2E2E2E2E2E2E2E2E2E2E2E2E2E2E2E2E2E2E2E2E2E2E2E2E2E2E2E2E2E2E2E2E2E2E2E2E2E2E2E2E2E2E2E2E2E2E2E2E2E2BEE2E2E2E2E2E2E2E2E2E2E2BEBEF5E2BEF5EFBEE2F5E2BEE2E2E2E2E2E2E2E2E2BEE2E2E2E2E2E2E2E2E2E2E2E2E2E2E2E2E2E2E2E2E2E2E2E2E2E2E2E2E2E2E2E2E2E2E2
310
E2E2E2E2E2E2E2E2E2E2E2E2E2E2E2E2E2E2E2E2E2E2E2E2E2E2E2E2E2E2E2E2E2E2E2E2E228E2E2E2E2E2E2E2E228E2E2E2E2E228E2E228E2E2E2E2E2E2E2E2E2E2E2E2E2E2E2E2E2E2E2E2E2E2E2E2E2E2E2E2E2E2E2E2E2E2E2E2E2E2E2E2E2E2E2E2E2E2E2E2E2E2E2E2E2E2E2BEE2E2E2E2E2E2E2E2E2E2E2BEE2F5E2
310
BEF5EFBEE2F5E2BEE2E2E2E2E2E2E2E2E2BEE2E2E2E2E2E2E2E2E2E2E2E2E2E2E2E2E2E2E2E2E2E2E2E2E2E2E2E2E2E2E2E2E2E2E2E2E2E2E2E2E2E2E2E2E2E2E2E2E2E2E2E2E2E2E2E2E2E2E2E2E2E2E2E2E2E2E2E2E2E2E2E228282828282828282828E2E2E2E2E2E2E2E2E228E2E2E2E2E2E2E2E2E2E2E2E2E2E2E2E2E2
310
E2E2E2E2E2E2E2E2E2E2E2E2E2E2E2E2E2E2E2E2E2E2E2E2E2E2E2E2E2E2E2E2E2E2E2E2E2BEE2E2E2E2E2E2E2E2E2E2E2BEE2F5E2BEF5EFBEE2F5E2BEE2E2E2E2E2E2E2E2E2BEE2E2E2E2E2E2E2E2E2E2E2E2E2E2E2E2E2E2E2E2E2E2E2E2E2E2E2E2E2E2E2E2E2E2E2E2E2E2E2E2E2E2E2E2E2E2E2E2E2E2E2E2E2E2E2E2
310
E2E2E2E2E2E2E2E2E2E2E2E2E2E2E2E2E2E2E2E2DCDCDCE2E2E2E2E2E2E2E2E2E2E2E228E2E2E2E2E2E2E2E2E2E2E2E2E2E2E2E2E2E2E2E2E2E2E2E2E2E2E2E2E2E2E2E2E2E2E2E2E2E2E2E2E2E2E2E2E2E2E2E2E2E2E2E2E2E2BEE2E2E2E2E2E2E2E2E2E2E2BEE2F5E2BEF5EFBEE2F5E2BEE2E2E2E2E2E2E2E2E2BEE2E2E2
310
E2E2E2E2E2E2E2E2E2E2E2E2E2E2E2E2E2E2E2E2E2E2E2E2E2E2E2E2E2E2E2E2E2E2E2E2E2E2E2E2E2E2E2E2E2E2E2E2E2E2E2E2E2E2E2E2E2E2E2E2E2E2E2E2E2E2E2E2E2E2E2E2E2DCDCDCE2E2E2E2E2E2E2E2E2E2E2E228E2E2E2E2E2E2E2E2E2E2E2E2E2E2E2E2E2E2E2E2E2E2E2E2E2E2E2E2E2E2E2E2E2E2E2E2E2E2
310
E2E2E2E2E2E2E2E2E2E2E2E2E2E2E2E2BEE2E2E2E2E2E2E2E2E2E2E2BEE2F5E2BEF5EFBEE2F5E2BEE2E2E2E2E2E2E2E2E2BEE2E2E2E2E2E2E2E2E2E2E2E2E2E2E2E2E2E2E2E2E2E2E2E2E2E2E2E2E2E2E2E2E2E2E2E2E2E2E2E2E2E2E2E2E2E2E2E2E2E2E2E2E2E2E2E2E2E2E2E2E2E2E2E2E2E2E2E2E2E2E2E2E2E2E2E2E2
310
E2E2E2E2E2E2E2E2E2E2E2E2E2E228E2E2E2E2E2E2E2E2E2E2E2E2E2E2E2E2E2E2E2E2E2E2E2E2E2E2E2E2E2E2E2E2E2E2E2E2E2E2E2E2E2E2E2E2E2E2E2E2E2E2E2E2E2E2BEE2E2E2E2E2E2E2E2E2E2E2BEE2F5E2BEF5EFBEE2F5E2BEE2E2E2E2E2E2E2E2E2BEE2E2E2E2E2E2E2E2E2E2E2E2E2E2E2E2E2E2E2E2E2E2E2E2
310
E2E2E2E2E2E2E2E2E2E2E2E2E2E2E2E2E2E2E2E2E2E2E2E2E2E2E2E2E2E2E2E2E2E2E2E2E2E2E2E2E2E2E2E2E2E2E2E2E2E2E2E2E2E2E2E2E2E2E2E2E2E2E2E2E2E2E228E2E2E2E2E2E2E2E2E2E2E2E2E2E2E2E2E2E2E2E2E2E2E2E2E2E2E2E2E2E2E2E2E2E2E2E2E2E2E2E2E2E2E2E2E2E2E2E2E2E2E2E2E2E2BEE2E2E2E2
310
E2E2E2E2E2E2E2BEE2F5E2BEF5EFBEE2F5E2BEE2E2E2E2E2E2E2E2E2BEE2E2E2E2E2E2E2E2E2E2E2E2E2E2E2E2E2E2E2E2E2E2E2E2E2E2E2E2E2E2E2E2E2E2E2E2E2E2E2E2E2E2E2E2E2E2E2E2E2E2E2E2E2E2E2E2E2E2E2E2E2E2E2E2E2E2E2E2E2E2E2E2E2E2E2E2E2E2E2E2E2E2E2E2E2E2E2E2E2E2E228E2E2E2E2E2E2
310
E2E2E2E2E2E2E2E2E2E2E2E2E2E2E2E2E2E2E2E2E2E2E2E2E2E2E2E2E2E2E2E2E2E2E2E2E2E2E2E2E2E2E2E2E2E2E2E2BEE2E2E2E2E2E2E2E2E2E2E2BEE2F5E2BEF5EFBEE2F5E2BEE2E2E2E2E2E2E2E2E2BEE2E2E2E2E2E2E2E2E2E2E2E2E2E2E2E2E2E2E2E2E2E2E2E2E2E2E2E2E2E2E2E2E2E2E2E2E2E2E2E2E2E2E2E2E2
310
E2E2E2E2E2E2E2E2E2E2E2E2E2E2E2E2E2E2E2E2E2E2E2E2E2E2E2E2E2E2E2E2E2E2E2E2E2E2E2E2E2E2E2E2E2E2E228E2E2E2E2E2E2E2E2E2E2E2E2E2E2E2E2E2E2E2E2E2E2E2E2E2E2E2E2E2E2E2E2E2E2E2E2E2E2E2E2E2E2E2E2E2E2E2E2E2E2E2E2E2BEE2E2E2E2E2E2E2E2E2E2E2BEE2F5E2BEF5EFBEE2F5BEBEE2E2
310
E2E2E2E2E2E2E2BEE2E2E2E2E2E2E2E2E2E2E2E2E2E2E2E2E2E2E2E2E2E2E2E2E2E2E2E2E2E2E2E2E2E2E2E2E2E2E2E2E2E2E2E2E2E2E2E2E2E2E2E2E2E2E2E2E2E2E2E2E2E2E2E2E2E2E2E2E2E2E2E2E2E2E2E2E2E2E2E2E2E2E2E2E2E2E2E2E2E2E2E228E2E2E2E2E2E2E2E2E2E2E2E2E2E2E2E2E2E2E2E2E2E2E2E2E2E2
310
E2E2E2E2E2E2E2E2E2E2E2E2E2E2E2E2E2E2E2E2E2E2E2E2E2E2E2BEE2E2E2E2E2E2E2E2E2E2E2BEBEF5E2BEF5EFBEE2F5E2BEE2E2E2E2E2E2E2E2E2BEE2E2E2E2E2E2E2E2E2E2E2E2E2E2E2E2E2E2E2E2E2E2E2E2E2E2E2E2E2E2E2E2E2E2E2E2E2E2E2E2E2E2E2E2E2E2E2E2E2E2E2E2E2E2E2E2E2E2E2E2E2E2E2E2E2E2
310
E2E2E2E2E2E2E2E2E2E2E2E2E2E2E2E2E2E2E2E2E2E2E2E2E2E22828282828282828282828282828282828282828DC28DC28E2E2E2E2E2E2E2E2E2E2E2E2E2E2E2E2E2E2E2E2E2E2E2E2E2E2E2E2E2E2BEE2E2E2E2E2E2E2E2E2E2E2BEE2F5E2BEF5EFBEE2F5E2BEE2E2E2E2E2E2E2E2E2BEE2E2E2E2E2E2E2E2E2E2E2E2E2
310
E2E2E2E2E2E2E2E2E2E2E2E2E2E2E2E2E2E2E2E2E2E2E2E2E2E2E2E2E2E2E2E2E2E2E2E2E2E2E2E2E2E2E2E2E2E2E2E2E2E2E2E2E2E2E2E2E2E2E2E2E2E2E2E2E2E2E2E2E2E2E2E2E2E2E2E2E2E2E2E2E2DCDCDCDCDCDCDCDCDCDCDCDCDCDCDCDCDCE2DCDCDCE2E2E2E2E2E2E2E2E2E2E2E2E2E2E2E2E2E2E2E2E2E2E2E2E2
310
E2E2E2E2E2E2BEE2E2E2E2E2E2E2E2E2E2E2BEE2F5E2BEF5EFBEE2F5E2BEE2E2E2E2E2E2E2E2E2BEE2E2E2E2E2E2E2E2E2E2E2E2E2E2E2E2E2E2E2E2E2E2E2E2E2E2E2E2E2E2E2E2E2E2E2E2E2E2E2E2E2E2E2E2E2E2E2E2E2E2E2E2E2E2E2E2E2E2E2E2E2E2E2E2E2E2E2E2E2E2E2E2E2E2E2E2E2E2E2E2E2E2E2E2E2E2E2
310
E2E2E2E2E2E2E2DCDCDCDCE2E2E2E2E2DCE2E2DCE2E2DCE2E2DCDCDCE2E2E2E2E2E2E2E2E2E2E2E2E2E2E2E2E2E2E2E2E2E2E2E2E2E2E2E2E2E2E2BEE2E2E2E2E2E2E2E2E2E2E2BEE2F5E2BEF5EFBEE2F5E2BEE2E2E2E2E2E2E2E2E2BEE2E2E2E2E2E2E2E2E2E2E2E2E2E2E2E2E2E2E2E2E2E2E2E2E2E2E2E2E2E2E2E2E2E2
310
E2E2E2E2E2E2E2E2E2E2E2E2E2E2E2E2E2E2E2E2E2E2E2E2E2E2E2E2E2E2E2E2E2E2E2E2E2E2E2E2E2E2E2E2E2E2E2E2E2E2E2E2E2E2E2E2E2E2E2E2E2E2E2E2E2E2E2E2E2E2E2E2E2E2E2E2E2E2E2E2E2E2E2E2E2E2E2E2E2E2E2E2E2E2E2E2E2E2E2E2E2E2E2E2E2E2E2E2E2E2E2E2BEE2E2E2E2E2E2E2E2E2E2E2BEE2F5
310
E2BEF5EFBEE2F5E2BEE2E2E2E2E2E2E2E2E2BEE2E2E2E2E2E2E2E2E2E2E2E2E2E2E2E2E2E2E2E2E2E2E2E2E2E2E2E2E2E2E2E2E2E2E2E2E2E2E2E2E2E2E2E2E2E2E2E2E2E2E2E2E2E2E2E2E2E2E2E2E2E2E2E2E2E2E2E2E2E2E2E2E2E2E2E2E2E2E2E2E2E2E2E2E2E2E2E2E2E2E2E2E2E2E2E2E2E2E2E2E2E2E2E2E2E2E2E2
310
E2E2E2E2E2E2E2E2E2E2E2E2E2E2E2E2E2E2E2E2E2E2E2E2E2E2E2E2E2E2E2E2E2E2E2E2E2E2BEE2E2E2E2E2E2E2E2E2E2E2BEE2F5E2BEF5EFBEE2F5E2BEE2E2E2E2E2E2E2E2E2BEE2E2E2E2E2E2E2E2E2E2E2E2E2E2E2E2E2E2E2E2E2E2E2E2E2E2E2E2E2E2E2E2E2E2E2E2E2E2E2E2E2E2E2E2E2E2E2E2E2E2E2E2E2E2E2
310
E2E2E2E2E2E2E2E2E2E2E2E2E2E2E2E2E2E2E2E2E2E2E2E2E2E2E2E2E2E2E2E2E2E2E2E2E2E2E2E2E2E2E2E2E2E2E2E2E2E2E2E2E2E2E2E2E2E2E2E2E2E2E2E2E2E2E2E2E2E2E2E2E2E2E2E2E2E2E2E2E2E2E2E2E2E2E2E2E2E2E2BEE2E2E2E2E2E2E2E2E2E2E2BEE2F5E2BEF5EFBEE2F5E2BEE2E2E2E2E2E2E2E2E2BEE2E2
310
E2E2E2E2E2E2E2E2E2E2E2E2E2E2E2E2E2E2E2E2E2E2E2E2E2E2E2E2E2E2E2E2E2E2E2E2E2E2E2E2E2E2E2E2E2E2E2E2E2E2E2E2E2E2E2E2E2E2E2E2E2E2E2E2E2E2E2E2E2E2E2E2E2E2E2E2E2E2E2E2E2E2E2E2E2E2E2E2E2E2E2E2E2E2E2E2E2E2E2E2E2E2E2E2E2E2E2E2E2E2E2E2E2E2E2E2E2E2E2E2E2E2E2E2E2E2E2
310
E2E2E2E2E2E2E2E2E2E2E2E2E2E2E2E2E2BEE2E2E2E2E2E2E2E2E2E2E2BEE2F5E2BEF5EFBEE2F5E2BEE2E2E2E2E2E2E2E2E2BEE2E2E2E2E2E2E2E2E2E2E2E2E2E2E2E2E2E2E2E2E2E2E2E2E2E2E2E2E2E2E2E2E2E2E2E2E2E2E2E2E2E2E2E2E2E2E2E2E2E2E2E2E2E2E2E2E2E2E2E2E2E2E2E2E2E2E2E2E2E2E2E2E2E2E2E2
310
E2E2E2E2E2E2E2E2E2E2E2E2E2E2E2E2E2E2E2E2E2E2E2E2E2E2E2E2E2E2E2E2E2E2E2E2E2E2E2E2E2E2E2E2E2E2E2E2E2E2E2E2E2E2E2E2E2E2E2E2E2E2E2E2E2E2E2E2E2E2BEE2E2E2E2E2E2E2E2E2E2E2BEE2F5E2BEF5EFBEE2F5BEBEE2E2E2E2E2E2E2E2E2BEE2E2E2E2E2E2E2E2E2E2E2E2E2E2E2E2E2E2E2E2E2E2E2
310
E2E2E2E2E2E2E2E2E2E2E2E2E2E2E2E2E2E2E2E2E2E2E2E2E2E2E2E2E2E2E2E2E2E2E2E2E2E2E2E2E2E2E2E2E2E2E2E2E2E2E2E2E2E2E2E2E2E2E2E2E2E2E2E2E2E2E2E2E2E2E2E2E2E2E2E2E2E2E2E2E2E2E2E2E2E2E2E2E2E2E2E2E2E2E2E2E2E2E2E2E2E2E2E2E2E2E2E2E2E2E2E2E2E2E2E2E2E2E2E2E2E2E2BEE2E2E2
310
E2E2E2E2E2E2E2E2BEBEF5E2BEF5EFBEE2F5BEBEE2E2E2E2E2E2E2E2E2BEE2E2E2E2E2E2E2E2E2E2E2E2E2E2E2E2E2E2E2E2E2E2E2E2E2E2E2E2E2E2E2E2E2E2E2E2E2E2E2E2E2E2E2E2E2E2E2E2E2E2E2E2E2E2E2E2E2E2E2E2E2E2E2E2E2E2E2E2E2E2E2E2E2E2E2E2E2E2E2E2E2E2E2E2E2E2E2E2E2E2E2E2E2E2E2E2E2
310
E2E2E2E2E2E2E2E2E2E2E2E2E2E2E2E2E2E2E2E2E2E2E2E2E2E2E2E2E2E2E2E2E2E2E2E2E2E2E2E2E2E2E2E2E2E2E2E2E2BEE2E2E2E2E2E2E2E2E2E2E2BEBEF5E2BEF5EFBEE2F5BEBEE2E2E2E2E2E2E2E2E2BEE2E2E2E2E2E2E2E2E2E2E2E2E2E2E2E2E2E2E2E2E2E2E2E2E2E2E2E2E2E2E2E2E2E2E2E2E2E2E2E2E2E2E2E2
310
E2E2E2E2E2E2E2E2E2E2E2E2E2E2E2E2E2E2E2E2E2E2E2E2E2E2E2E2E2E2E2E2E2E2E2E2E2E2E2E2E2E2E2E2E2E2E2E2E2E2E2E2E2E2E2E2E2E2E2E2E2E2E2E2E2E2E2E2E2E2E2E2E2E2E2E2E2E2E2E2E2E2E2E2E2E2E2E2E2E2E2E2E2E2E2E2E2E2E2E2E2E2BEE2E2E2E2E2E2E2E2E2E2E2BEBEF5E2BEF5EFBEE2F5E2BEE2
310
E2E2E2E2E2E2E2E2BEE2E2E2E2E2E2E2E2E2E2E2E2E2E2E2E2E2E2E2E2E2E2E2E2E2E2E2E2E2E2E2E2E2E2E2E2E2E2E2E2E2E2E2E2E2E2E2E2E2E2E2E2E2E2E2E2E2E2E2E2E2E2E2E2E2E2E2E2E2E2E2E2E2E2E2E2E2E2E2E2E2E2E2E2E2E2E2E2E2E2E2E2E2E2E2E2E2E2E2E2E2E2E2E2E2E2E2E2E2E2E2E2E2E2E2E2E2E2
310
E2E2E2E2E2E2E2E2E2E2E2E2E2E2E2E2E2E2E2E2E2E2E2E2E2E2E2E2BEE2E2E2E2E2E2E2E2E2E2E2BEE2F5E2BEF5EFBEE2F5E2BEE2E2E2E2E2E2E2E2E2BEBEBEBEBEBEBEBEBEBEBEBEBEBEBEBEBEBEBEBEBEBEBEBEBEBEBEBEBEBEBEBEBEBEBEBEBEBEBEBEBEBEBEBEBEBEBEBEBEBEBEBEBEBEBEBEBEBEBEBEBEBEBEBEBEBE
310
BEBEBEBEBEBEBEBEBEBEBEBEBEBEBEBEBEBEBEBEBEBEBEBEBEBEBEBEBEBEBEBEBEBEBEBEBEBEBEBEBEBEBEBEBEBEBEBEBEBEBEBEBEBEBEBEBEBEBEBEBEBEBEBEBEBEBEBEBEBEBEBEBEBEBEBEBEBEBEBEBEBEE2E2E2E2E2E2E2E2E2E2E2BEE2F5E2BEF5EFBEE2F5E2BEE2E2E2E2E2E2E2E2E2E2E2E2E2E2E2E2E2E2E2E2E2E2
310
E2E2E2E2E2E2E2E2E2E2E2E2E2E2E2E2E2E2E2E2E2E2E2E2E2E2E2E2E2E2E2E2E2E2E2E2E2E2E2E2E2E2E2E2E2E2E2E2E2E2E2E2E2E2E2E2E2E2E2E2E2E2E2E2E2E2E2E2E2E2E2E2E2E2E2E2E2E2E2E2E2E2E2E2E2E2E2E2E2E2E2E2E2E2E2E2E2E2E2E2E2E2E2E2E2E2E2E2E2E2E2E2E2E2E2E2E2E2E2E2E2E2E2E2E2E2E2
310
E2E2E2E2E2E2E2E2E2E2E2E2E2E2E2E2E2E2E2BEE2F5E2BEF5EFBEE2F5E2BEE2E2E2E2E2E2E2E2E2E2E2E2E2E2E2E2E2E2E2E2E2E2E2E2E2E2E2E2E2E2E2E2E2E2E2E2E2E2E2E2E2E2E2E2E2E2E2E2E2E2E2E2E2E2E2E2E2E2E2E2E2E2E2E2E2E2E2E2E2E2E2E2E2E2E2E2E2E2E2E2E2E2E2E2E2E2E2E2E2E2E2E2E2E2E2E2
310
E2E2E2E2E2E2E2E2E2E2E2E2E2E2E2E2E2E2E2E2E2E2E2E2E2E2E2E2E2E2E2E2E2E2E2E2E2E2E2E2E2E2E2E2E2E2E2E2E2E2E2E2E2E2E2E2E2E2E2E2E2E2E2E2E2E2E2E2E2E2E2E2BEE2F5E2BEF5EFBEE2F5E2BEE2E2E2E2E2E2E2E2E2E2E2E2E2E2E2E2E2E2E2E2E2E2E2E2E2E2E2E2E2E2E2E2E2E2E2E2E2E2E2E2E2E2E2
310
E2E2E2E2E2E2E2E2E2E2E2E2E2E2E2E2E2E2E2E2E2E2E2E2E2E2E2E2E2E2E2E2E2E2E2E2E2E2E2E2E2E2E2E2E2E2E2E2E2E2E2E2E2E2E2E2E2E2E2E2E2E2E2E2E2E2E2E2E2E2E2E2E2E2E2E2E2E2E2E2E2E2E2E2E2E2E2E2E2E2E2E2E2E2E2E2E2E2E2E2E2E2E2E2E2E2E2E2E2E2E2E2E2E2E2E2E2E2E2E2E2E2E2E2E2BEE2
310
F5E2BEF5EFBEE2F5E2BEE2E2E2E2E2E2E2E2E2E2E2E2E2E2E2E2E2E2E2E2E2E2E2E2E2E2E2E2E2E2E2E2E2E2E2E2E2E2E2E2E2E2E2E2E2E2E2E2E2E2E2E2E2E2E2E2E2E2E2E2E2E2E2E2E2E2E2E2E2E2E2E2E2E2E2E2E2E2E2E2E2E2E2E2E2E2E2E2E2E2E2E2E2E2E2E2E2E2E2E2E2E2E2E2E2E2E2E2E2E2E2E2E2E2E2E2E2
310
E2E2E2E2E2E2E2E2E2E2E2E2E2E2E2E2E2E2E2E2E2E2E2E2E2E2E2E2E2E2E2E2E2E2E2E2E2E2E2E2E2E2E2E2E2E2E2E2E2E2E2BEE2F5E2BEF5EFBEE2F5E2BEE2E2E2E2E2E2E2E2E2E2E2E2E2E2E2E2E2E2E2E2E2E2E2E2E2E2E2E2E2E2E2E2E2E2E2E2E2E2E2E2E2E2E2E2E2E2E2E2E2E2E2E2E2E2E2E2E2E2E2E2E2E2E2E2
310
E2E2E2E2E2E2E2E2E2E2E2E2E2E2E2E2E2E2E2E2E2E2E2E2E2E2E2E2E2E2E2E2E2E2E2E2E2E2E2E2E2E2E2E2E2E2E2E2E2E2E2E2E2E2E2E2E2E2E2E2E2E2E2E2E2E2E2E2E2E2E2E2E2E2E2E2E2E2E2E2E2E2E2E2E2E2E2E2E2E2E2E2E2E2E2E2E2E2E2E2E2E2E2E2BEE2F5E2BEF5EFBEE2F5E2BEE2E2E2E2E2E2E2E2E2E2E2
310
E2E2E2E2E2E2E2E2E2E2E2E2E2E2E2E2E2E2E2E2E2E2E2E2E2E2E2E2E2E2E2E2E2E2E2E2E2E2E2E2E2E2E2E2E2E2E2E2E2E2E2E2E2E2E2E2E2E2E2E2E2E2E2E2E2E2E2E2E2E2E2E2E2E2E2E2E2E2E2E2E2E2E2E2E2E2E2E2E2E2E2E2E2E2E2E2E2E2E2E2E2E2E2E2E2E2E2E2E2E2E2E2E2E2E2E2E2E2E2E2E2E2E2E2E2E2E2
310
E2E2E2E2E2E2E2E2E2E2E2E2E2E2E2E2E2E2E2E2E2E2E2E2E2E2E2E2E2E2BEE2F5E2BEF5EFBEE2F5E2BEBEBEBEBEBEBEBEBEBEBEBEBEBEBEBEBEBEBEBEBEBEBEBEBEBEBEBEBEBEBEBEBEBEBEBEBEBEBEBEBEBEBEBEBEBEBEBEBEBEBEBEBEBEBEBEBEBEBEBEBEBEBEBEBEBEBEBEBEBEBEBEBEBEBEBEBEBEBEBEBEBEBEBEBEDC
310
BEBEBEBEBEBEBEBEBEBEBEBEBEBEBEBEBEBEBEBEBEBEBEBEBEBEBEBEBEBEBEBEBEBEBEBEBEBEBEBEBEBEBEBEBEBEBEBEBEBEBEBEBEBEBEBEBEBEBEBEBEBEBEBEBEBEBEBEBEBEBEBEBEBEBEBEBEBEBEBEBEBEBEBEE2F5E2BEF5EFBEE2F5E2E2E2E2E2E2E2E2E2E2E2BEE2E2E2E2E2E2E2E2E2E2BEE2E2E2E2E2E2E2E2E2BEBE
310
E2E2E2E2E2E2E2E2E2BEE2E2E2E2E2E2E2E2E2BEBEE2E2E2E2E2E2E2E2E2BEE2E2E2E2E2E2E2E2E2E2BEE2E2E2E2E2E2E2E2E2E2DCE2E2E2E2E2E2E2E2E2BEE2E2E2E2E2E2E2E2E2E2BEE2E2E2E2E2E2E2E2E2BEBEE2E2E2E2E2E2E2E2E2BEE2E2E2E2E2E2E2E2E2BEBEE2E2E2E2E2E2E2E2E2BEE2E2E2E2E2E2E2E2E2BEBE
310
E2E2E2E2E2E2E2E2E2E2E2F5E2BEF5EFBEE2F5F5F5F5F5F5F5F5F5F5F5F5F5F5F5F5F5F5F5F5F5F5F5F5F5F5F5F5F5F5F5F5F5F5F5F5F5F5F5F5F5F5F5F5F5F5F5F5F5F5F5F5F5F5F5F5F5F5F5F5F5F5F5F5F5F5F5F5F5F5F5F5F5F5F5F5F5F5F5F5F5F5F5F5F5F5F5DCF5F5F5F5F5F5F5F5F5F5F5F5F5F5F5F5F5F5F5F5F5
310
F5F5F5F5F5F5F5F5F5F5F5F5F5F5F5F5F5F5F5F5F5F5F5F5F5F5F5F5F5F5F5F5F5F5F5F5F5F5F5F5F5F5F5F5F5F5F5F5F5F5F5F5F5F5F5F5F5F5F5F5F5F5F5F5F5E2BEF5EFBEE2E2E2E2E2E2E2E2E2E2E2E2E2E2E2E2E2E2E2E2E2E2E2E2E2E2E2E2E2E2E2E2E2E2E2E2E2E2E2E2E2E2E2E2E2E2E2E2E2E2E2E2E2E2E2E2E2
310
E2E2E2E2E2E2E2E2E2E2E2E2E2E2E2E2E2E2E2E2E2E2E2E2E2E2E2E2E2E2E2E2E2E2E2E2E2E2E2E2E2E2E2E2E2E2E2E2E2E2E2E2E2E2E2E2E2E2E2E2E2E2E2E2E2E2E2E2E2E2E2E2E2E2E2E2E2E2E2E2E2E2E2E2E2E2E2E2E2E2E2E2E2E2E2E2E2E2E2E2E2E2E2E2E2E2E2E2E2E2E2E2E2E2E2E2E2E2E2BEEFEFBEBEBEBEBE
310
BEBEBEBEBEBEBEBEBEBEBEBEBEBEBEBEBEBEBEBEBEBEBEBEBEBEBEBEBEBEBEBEBEBEBEBEBEBEBEBEBEBEBEBEBEBEBEBEBEBEBEBEBEBEBEBEBEBEBEBEBEBEBEBEBEBEBEBEBEBEBEBEBEBEBEBEBEBEBEBEBEBEBEBEBEBEBEBEBEBEBEBEBEBEBEBEBEBEBEBEBEBEBEBEBEBEBEBEBEBEBEBEBEBEBEBEBEBEBEBEBEBEBEBEBEBEBE
310
BEBEBEBEBEBEBEBEBEBEBEBEBEBEBEBEBEBEBEBEBEBEBEBEBEBEBEBEBEBEBEBEBEBEBEBEBEBEBEBEBEBEBEBEBEBEEFEF
  0
XRECORD
  5
7DA4
102
{ACAD_REACTORS
330
7DA3
102
}
330
7DA3
100
AcDbXrecord
280
     1
102
SHADEPLOT
 70
     1
102
SHADEPLOTRESLEVEL
 70
     2
102
SHADEPLOTCUSTOMDPI
 70
   300
  0
ENDSEC
  0
EOF
